<?xml version="1.0" standalone="no"?>
<!DOCTYPE svg PUBLIC "-//W3C//DTD SVG 1.1//EN" "http://www.w3.org/Graphics/SVG/1.1/DTD/svg11.dtd" >
<svg xmlns="http://www.w3.org/2000/svg" xmlns:xlink="http://www.w3.org/1999/xlink" version="1.1">
<metadata>
Created by FontForge 20170731 at Tue Jun 13 11:43:29 2023
 By Aleksey,,,
(c) 1990, 1991, 1992, 1994, 1997, 1998, 2000, 2002, 2004 Adobe Systems Incorporated. All rights reserved.
</metadata>
<defs>
<font id="MinionPro-Regular" horiz-adv-x="819" >
  <font-face 
    font-family="Minion Pro"
    font-weight="400"
    font-stretch="normal"
    units-per-em="2048"
    panose-1="2 4 5 3 5 3 6 2 2 3"
    ascent="1489"
    descent="-559"
    x-height="895"
    cap-height="1331"
    bbox="-594 -737 3449 2025"
    underline-thickness="102"
    underline-position="-307"
    unicode-range="U+0020-FB06"
  />
<missing-glyph horiz-adv-x="1024" 
d="M1024 0h-1024v1434h1024v-1434zM860 1331h-696l348 -522zM922 195v1044l-349 -522zM164 102h696l-348 523zM102 1239v-1044l349 522z" />
    <glyph glyph-name="T_h" unicode="Th" horiz-adv-x="2193" 
d="M2154 0h-434v53q91 9 113 35t22 127v336q0 255 -202 252q-58 0 -115 -28.5t-96 -78.5v-481q0 -101 21 -127t112 -35v-53h-438v53q97 9 120 35t23 127v1030q-136 12 -401 12h-144v-999q0 -48 1.5 -75t10 -51.5t20 -36t37 -21t54.5 -13t80 -6.5v-55h-576v55q49 3 77.5 6.5
t53.5 13t36.5 21t19.5 35.5t10 52t2 75v999h-129q-130 0 -177.5 -13.5t-72.5 -51.5q-34 -52 -65 -178h-60q3 40 9 116.5t10 139t6 112.5h39q21 -32 43 -41.5t67 -9.5h852q124 0 160.5 10.5t36.5 42.5v29q50 8 162 47v-688q60 63 135 105t149 43q135 3 213 -84.5t78 -264.5
v-356q0 -37 1 -59.5t7.5 -41.5t13.5 -28t25 -16.5t37 -10.5t53 -6v-53z" />
    <glyph glyph-name="Tcaron_h" unicode="&#x164;h" horiz-adv-x="2193" 
d="M2154 0h-434v53q91 9 113 35t22 127v336q0 255 -202 252q-58 0 -115 -28.5t-96 -78.5v-481q0 -101 21 -127t112 -35v-53h-438v53q97 9 120 35t23 127v1030q-136 12 -401 12h-144v-999q0 -48 1.5 -75t10 -51.5t20 -36t37 -21t54.5 -13t80 -6.5v-55h-576v55q49 3 77.5 6.5
t53.5 13t36.5 21t19.5 35.5t10 52t2 75v999h-129q-130 0 -177.5 -13.5t-72.5 -51.5q-34 -52 -65 -178h-60q3 40 9 116.5t10 139t6 112.5h39q21 -32 43 -41.5t67 -9.5h852q124 0 160.5 10.5t36.5 42.5v29q50 8 162 47v-688q60 63 135 105t149 43q135 3 213 -84.5t78 -264.5
v-356q0 -37 1 -59.5t7.5 -41.5t13.5 -28t25 -16.5t37 -10.5t53 -6v-53zM905 1681l33 -53q-164 -120 -258 -219h-45q-15 15 -31.5 31t-29.5 28.5t-33.5 29.5t-31 26t-34 27.5t-31.5 24.5t-35 27t-32 25l33 53q151 -68 247 -127q124 71 248 127z" />
    <glyph glyph-name="uni021A_h" unicode="&#x21a;h" horiz-adv-x="2193" 
d="M2154 0h-434v53q91 9 113 35t22 127v336q0 255 -202 252q-58 0 -115 -28.5t-96 -78.5v-481q0 -101 21 -127t112 -35v-53h-438v53q97 9 120 35t23 127v1030q-136 12 -401 12h-144v-999q0 -48 1.5 -75t10 -51.5t20 -36t37 -21t54.5 -13t80 -6.5v-55h-576v55q49 3 77.5 6.5
t53.5 13t36.5 21t19.5 35.5t10 52t2 75v999h-129q-130 0 -177.5 -13.5t-72.5 -51.5q-34 -52 -65 -178h-60q3 40 9 116.5t10 139t6 112.5h39q21 -32 43 -41.5t67 -9.5h852q124 0 160.5 10.5t36.5 42.5v29q50 8 162 47v-688q60 63 135 105t149 43q135 3 213 -84.5t78 -264.5
v-356q0 -37 1 -59.5t7.5 -41.5t13.5 -28t25 -16.5t37 -10.5t53 -6v-53zM637 -57q61 0 106 -45t45 -115q0 -86 -60 -139.5t-157 -77.5l-18 55q62 27 92.5 53.5t30.5 61.5q0 62 -92 84q-31 8 -31 49q0 35 25.5 54.5t58.5 19.5z" />
    <glyph glyph-name="f_b" unicode="fb" horiz-adv-x="1644" 
d="M915 829l168 70q49 21 86 21q165 0 284.5 -124.5t119.5 -303.5q0 -146 -72 -266t-189.5 -185.5t-254.5 -65.5q-146 0 -301 74v1227q-35 37 -86.5 61.5t-106.5 24.5q-84 0 -139 -74q-58 -85 -55 -309v-84h239q10 -14 3.5 -43t-25.5 -39h-217v-580q0 -40 1.5 -63.5t9 -44.5
t17.5 -31.5t32 -19.5t48 -13t70 -8v-53h-479v53q91 9 115 36.5t24 125.5v598h-144l-10 25l58 57h96v45q0 100 22 168q39 141 158 242q116 94 240 108q89 -3 151 -45q56 14 127 45l10 -12v-617zM915 770v-532q0 -40 13 -72q14 -40 61.5 -77.5t118.5 -37.5q129 -1 206 105.5
t77 281.5q0 169 -90 270t-224 101q-96 0 -162 -39z" />
    <glyph glyph-name="f_f_b" unicode="ffb" horiz-adv-x="2193" 
d="M1464 1448v-619q31 13 84.5 35.5t81.5 34.5q50 21 86 21q165 0 284.5 -124.5t119.5 -303.5q0 -146 -72.5 -266t-190.5 -185.5t-255 -65.5q-144 0 -299 74v1225q-33 41 -83 68.5t-104 27.5q-85 0 -139 -74q-59 -81 -62 -321v-80h240q10 -13 3.5 -42.5t-23.5 -39.5h-220
v-600q0 -36 1.5 -58t9 -40.5t16.5 -28t29.5 -17t43.5 -11t62 -7.5v-51h-450v51q46 6 67.5 12t37 24.5t19 46t3.5 81.5v598h-385v-600q0 -100 22.5 -125t116.5 -37v-51h-440v53q93 9 116 35t23 125v600h-144l-8 23l56 59h96v20q0 66 24 150q41 131 170 233q122 95 258 109
q152 -5 232 -98q128 134 285 149q98 -4 153 -47q56 14 125 47zM754 895v35q0 149 63 272q-33 47 -91.5 83t-129.5 36q-106 0 -164 -94q-63 -92 -63 -287v-45h385zM1464 770v-530q0 -40 13 -72q14 -40 61.5 -77.5t120.5 -37.5q124 -2 202 102.5t78 282.5q0 170 -89.5 269.5
t-223.5 99.5q-42 0 -87.5 -11t-74.5 -26z" />
    <glyph glyph-name="f_f_h" unicode="ffh" horiz-adv-x="2213" 
d="M2177 0h-434v53q90 9 112.5 35t22.5 125v338q0 257 -205 254q-58 0 -114.5 -28t-96.5 -79v-485q0 -97 23 -124t112 -36v-53h-426v53q60 6 85 18t36 43t11 99v1061q-86 94 -189 94q-88 0 -141 -76q-58 -79 -58 -317v-80h240q10 -14 4.5 -43t-24.5 -39h-220v-600
q0 -52 4 -78.5t22 -45t43 -24.5t77 -12v-53h-434v53q45 6 67 12t37.5 24.5t19 45.5t3.5 80v598h-385v-598q0 -53 3.5 -80t20 -45.5t40.5 -24.5t73 -12v-53h-434v53q48 6 72 13t39.5 25.5t19.5 45t4 78.5v598h-144l-6 23l56 59h94v20q0 63 26 150q40 131 168 233
q126 98 263 109q145 -5 229 -98q125 130 276 149q93 0 154 -47q66 15 131 47l8 -8v-676q61 63 137.5 104t151.5 42q134 5 211.5 -83t77.5 -266v-360q0 -99 22.5 -124t114.5 -34v-53zM754 895v35q0 152 63 272q-33 48 -89.5 83.5t-129.5 35.5q-109 0 -166 -96
q-63 -95 -63 -285v-45h385z" />
    <glyph glyph-name="f_f_j" unicode="ffj" horiz-adv-x="1611" 
d="M915 895h166q234 0 381 27l2 -695q0 -106 -9.5 -178.5t-37.5 -150.5q-46 -136 -118.5 -247.5t-120.5 -154.5q-25 -22 -54 -22q-23 0 -48 26t-25 60q0 20 10 30.5t33 18.5q56 19 88.5 36t50.5 40q35 43 51 147q19 149 19 395l-3 480q0 72 -15.5 90t-86.5 18h-283v-610
q0 -96 22.5 -119.5t123.5 -32.5v-53h-440v53q92 9 112.5 32.5t20.5 119.5v610h-385v-602q0 -37 1 -58.5t7 -41t13.5 -28t25 -16.5t36.5 -11t54 -7v-51h-434v53q49 5 72.5 10.5t40 23.5t20.5 45.5t4 80.5v602h-146l-6 21l54 59h98v41q0 61 20 143q48 140 172 234
q123 93 258 104q88 -3 148 -33.5t90 -74.5q70 68 151 107t150 42q145 -2 221 -96q27 -41 13 -74q-20 -33 -48 -51q-38 -27 -65 4q-56 62 -90 84q-57 37 -119 37q-78 0 -131 -74q-64 -82 -64 -311v-82zM754 895v55q0 89 20 148q17 61 41 100q-33 54 -93 92.5t-134 38.5
q-105 0 -158 -86q-61 -100 -61 -291v-57h385z" />
    <glyph glyph-name="f_f_k" unicode="ffk" horiz-adv-x="2140" 
d="M2173 0l-270 -4q-47 50 -103 116t-131 157.5t-108 131.5q-35 45 -62 45q-19 0 -37 -6v-225q0 -54 4 -81.5t22.5 -46t44 -24t79.5 -10.5v-53h-449v53q93 9 116.5 35t23.5 127v1059q-86 94 -189 94q-89 0 -139 -72q-60 -82 -60 -321v-80h240q10 -13 4 -43t-24 -39h-220
v-602q0 -52 4 -78.5t22 -44t43.5 -23.5t78.5 -12v-53h-436v53q60 8 84 19.5t33.5 41t9.5 97.5v602h-385v-600q0 -53 3.5 -79.5t20.5 -44t40.5 -23.5t74.5 -13v-53h-440v55q50 5 73.5 10.5t40.5 23.5t21 44.5t4 79.5v600h-144l-8 18l56 64h96v20q0 69 26 152q46 137 166 231
q129 98 267 109q147 -5 227 -98q122 130 278 149q95 -3 152 -45q44 7 131 45l8 -10v-954q77 17 131 71q31 31 74.5 84.5t69.5 93.5q32 47 20 66t-80 25v55l420 18v-53q-97 -14 -148.5 -39t-111.5 -80q-52 -52 -176 -198q34 -52 148.5 -185t170.5 -188q60 -58 99 -82.5
t94 -28.5v-53zM754 895v35q0 152 63 272q-33 48 -90.5 83.5t-132.5 35.5q-102 0 -164 -96q-61 -85 -61 -285v-45h385z" />
    <glyph glyph-name="f_f_t" unicode="fft" horiz-adv-x="1744" 
d="M1729 70l-144 -72q-53 -23 -82 -23q-97 0 -148.5 61.5t-51.5 182.5v596h-388v-604q0 -54 4 -80.5t23.5 -44.5t46 -23.5t84.5 -11.5v-51h-446v51q46 6 67.5 12t37 24t19 44.5t3.5 79.5v604h-385v-604q0 -53 3.5 -79.5t20.5 -44t40.5 -23.5t74.5 -13v-51h-440v53
q93 9 116 34.5t23 123.5v604h-144l-8 21l56 59h96v23q0 69 24 143q43 136 168 237q129 98 265 109q148 -5 229 -98q128 134 270 149q99 -3 154 -61q29 -36 14 -72q-26 -42 -51 -55q-21 -13 -45 8q-80 76 -160 76q-64 0 -110 -68q-50 -74 -50 -325v-66h388v137l133 139l26 -4
v-272h234q14 -15 9.5 -41.5t-24.5 -38.5h-219v-526q0 -109 35.5 -153t85.5 -44q59 0 127 33zM754 895v39q0 149 61 266q-33 47 -90.5 83t-128.5 36q-100 0 -166 -90q-61 -85 -61 -289v-45h385z" />
    <glyph glyph-name="f_h" unicode="fh" horiz-adv-x="1667" 
d="M1630 0h-434v53q90 9 112.5 36t22.5 126v336q0 127 -49.5 189.5t-153.5 62.5q-59 -2 -116 -29.5t-97 -77.5v-481q0 -99 23.5 -126t112.5 -36v-53h-428v53q86 9 108.5 36t22.5 126v1059q-33 39 -84 65.5t-107 26.5q-86 0 -139 -76q-55 -73 -55 -315v-80h237q9 -15 3 -43.5
t-23 -38.5h-217v-582q0 -49 3.5 -76t9.5 -47t24 -29.5t37.5 -15t60.5 -10.5v-53h-434v53q92 12 114.5 37.5t22.5 122.5v600h-144l-6 18l56 64h94v37q0 102 22 176q39 138 158 238q112 97 236 112q102 -3 153 -47q62 14 129 47l10 -8v-676q62 62 138 103.5t149 42.5
q135 5 213 -83.5t78 -267.5v-356q0 -99 22.5 -125t114.5 -35v-53z" />
    <glyph glyph-name="f_j" unicode="fj" horiz-adv-x="1064" 
d="M371 895h161q240 0 383 27v-695q0 -106 -9.5 -179.5t-35.5 -151.5q-48 -136 -114.5 -237t-124.5 -159q-26 -26 -56 -26q-24 0 -49.5 25t-25.5 59q0 19 10 29t33 18q112 37 141 76q39 48 55 153q17 133 17 402v471q0 71 -17 89.5t-90 18.5h-278v-610q0 -96 22 -119.5
t121 -32.5v-53h-451v53q54 6 79 11.5t42.5 22.5t21 42t3.5 76v610h-146l-10 23l58 57h98v49q0 79 22 158q46 147 168 246q123 96 252 110q83 -3 139 -33.5t82 -64.5q26 -44 11 -74q-18 -33 -47 -49q-38 -23 -60 2q-101 119 -213 119q-79 0 -129 -72q-63 -92 -63 -321v-70z
" />
    <glyph glyph-name="f_k" unicode="fk" horiz-adv-x="1593" 
d="M1626 0l-270 -4q-47 51 -103 116.5t-131.5 157.5t-107.5 131q-35 45 -62 45q-19 0 -37 -6v-225q0 -36 1.5 -58.5t8.5 -41t15.5 -28t27.5 -16.5t40 -10t57 -6v-55h-453v55q68 5 95 16.5t38 42t11 101.5v1063q-82 86 -191 86q-90 0 -139 -76q-62 -90 -57 -313v-80h237
q10 -13 4.5 -42.5t-22.5 -39.5h-219v-580q0 -41 1.5 -66t7.5 -45.5t13.5 -30.5t25.5 -18t36.5 -11t52.5 -7v-55h-438v55q49 6 73 12t41 24.5t21 45t4 78.5v598h-146l-4 21l54 61h96v37q0 102 22 176q42 137 158 238q118 98 234 112q105 -3 153 -45q50 8 131 45l10 -10v-954
q78 17 132 71q58 55 145 180q35 47 24.5 66t-81.5 25v53l415 18v-51q-100 -17 -149 -40t-109 -79q-19 -17 -39 -38.5t-35 -38.5t-48 -54.5t-58 -66.5q36 -53 151.5 -187.5t170.5 -187.5q59 -59 98 -83t94 -28v-53z" />
    <glyph glyph-name="f_t" unicode="ft" horiz-adv-x="1191" 
d="M1182 70l-142 -70q-49 -25 -84 -25q-97 0 -148.5 61.5t-51.5 182.5v594h-387v-598q0 -54 3.5 -80.5t21 -45.5t44.5 -25t82 -11v-53h-457v53q97 10 120.5 36.5t23.5 123.5v600h-144l-10 23l53 59h101v51q0 86 20 158q45 151 164 246q116 94 225 108q99 -3 154 -61
q30 -34 14 -74q-19 -35 -49 -53q-25 -16 -49 8q-29 29 -74 50.5t-84 21.5q-69 0 -110 -62q-52 -76 -49 -340v-53h387v139l131 137l28 -4v-272h234q13 -13 9 -42t-23 -40h-220v-524q0 -112 35.5 -155.5t85.5 -43.5q54 0 127 35z" />
    <glyph glyph-name="longs_b" unicode="&#x17f;b" horiz-adv-x="1646" 
d="M915 827l162 72q49 21 88 21q109 0 202.5 -55.5t149.5 -154.5t56 -218q0 -110 -43 -207.5t-114.5 -164.5t-165.5 -106t-195 -39q-146 0 -301 74v1231q-83 90 -187 90q-86 0 -143 -84q-55 -83 -55 -358v-697q0 -43 1 -67t7.5 -45t14 -30.5t27.5 -17.5t40 -11t59 -7v-53
h-446v53q51 5 74 10t39 23.5t19 44.5t3 82v602h-144l-8 21l56 59h96v43q0 93 20 168q46 147 158 242q109 94 240 110q93 -3 153 -49q51 13 125 49l12 -10v-621zM915 770v-532q0 -44 11 -72q13 -39 63 -76.5t123 -38.5q126 0 202.5 103t76.5 284q0 167 -92 268t-226 101
q-39 0 -85.5 -11.5t-72.5 -25.5z" />
    <glyph glyph-name="longs_h" unicode="&#x17f;h" horiz-adv-x="1667" 
d="M1624 0h-426v53q49 5 71 10.5t38 23.5t19 44.5t3 81.5v338q0 255 -205 252q-59 0 -114.5 -27t-94.5 -78v-487q0 -99 21 -124t111 -34v-53h-426v53q64 6 89 17.5t34.5 40.5t9.5 100v1067q-84 94 -191 94q-84 0 -139 -84q-55 -83 -55 -389v-672q0 -41 1 -65t7.5 -44.5
t13.5 -29.5t25.5 -17t36.5 -11t53 -7v-53h-434v53q39 5 60.5 10t38.5 14t23.5 27.5t9.5 41.5t3 65v604h-144l-8 21l56 59h96v45q0 98 22 166q38 140 156 242q115 95 236 110q102 -3 155 -49q51 13 129 49l10 -10v-678q61 64 136.5 106.5t148.5 43.5q135 5 213 -83t78 -268
v-358q0 -55 3 -81.5t19.5 -44t38.5 -22.5t72 -10v-53z" />
    <glyph glyph-name="longs_i" unicode="&#x17f;i" horiz-adv-x="1091" 
d="M111 895h96v47q0 84 24 154q14 55 55 123.5t115 128.5q124 98 254 110q81 -3 136 -34t83 -68q26 -39 11 -68q-11 -26 -45 -51q-40 -28 -62 0q-100 123 -213 123q-76 0 -131 -78q-65 -95 -65 -385v-672q0 -40 1 -63.5t7.5 -43.5t13.5 -29.5t25 -17.5t37 -11t53 -7v-53
h-432v53q90 9 111.5 34.5t21.5 123.5v604h-146l-4 21zM1053 0h-437v53q41 4 62 8.5t39 13.5t24.5 28t9.5 44.5t3 71.5v412q0 39 -0.5 60t-7 40.5t-12 28t-24 17t-34 12t-51.5 10.5v45q156 25 290 80v-705q0 -76 9.5 -106t35 -42t93.5 -18v-53z" />
    <glyph glyph-name="longs_k" unicode="&#x17f;k" horiz-adv-x="1591" 
d="M1622 0l-268 -4q-44 45 -100 111t-132 160t-110 134q-33 43 -62 43q-16 0 -37 -6v-225q0 -101 23.5 -126t124.5 -34v-53h-445v53q51 5 75 10.5t40 23.5t19.5 44t3.5 80v1067q-87 94 -191 94q-88 0 -139 -84q-55 -87 -55 -381v-686q0 -57 3 -85t19.5 -47t39.5 -24.5
t73 -11.5v-53h-434v53q49 6 73 12t40 23.5t20 42.5t4 74v610h-146l-6 21l56 59h96v45q0 98 22 166q39 144 156 240q111 97 236 112q50 -1 92 -14.5t63 -34.5q63 16 127 49l10 -10v-952q81 17 131 67q81 81 154 193q28 36 14.5 55t-82.5 25v53l416 18v-51
q-99 -17 -151.5 -41.5t-110.5 -79.5q-63 -63 -176 -194q35 -52 147.5 -185t171.5 -192q58 -58 98.5 -82.5t96.5 -28.5v-53z" />
    <glyph glyph-name="longs_l" unicode="&#x17f;l" horiz-adv-x="1091" 
d="M1059 -2h-443v53q52 5 75 10t40 23.5t20 45.5t3 83v1067q-83 90 -189 90q-84 0 -135 -76q-61 -80 -61 -407v-656q0 -50 3 -77t8.5 -47.5t22.5 -29.5t37 -14t60 -10v-53h-428v53q50 6 73 11.5t39 23.5t19.5 44.5t3.5 80.5v602h-144l-6 21l54 59h96v45q0 94 22 168
q40 140 154 238q110 96 238 112q102 -3 157 -47q57 14 125 47l12 -12v-1233q0 -57 3.5 -84t21 -45t41.5 -23t78 -10v-53z" />
    <glyph glyph-name="longs_longs" unicode="&#x17f;&#x17f;" horiz-adv-x="1091" 
d="M207 895v20q0 76 24 146q48 137 160 233q122 101 258 113q155 -3 236 -104q121 134 270 155q56 -1 101.5 -21t68.5 -48q31 -38 16 -68q-10 -21 -45 -51q-25 -18 -47 4q-82 86 -170 86q-76 0 -118 -78q-46 -84 -46 -401v-658q0 -39 1.5 -62t7.5 -43t14 -29.5t26.5 -17.5
t37.5 -11t55 -7v-53h-439v53q91 9 113.5 34.5t22.5 125.5v600h-148l-6 23l55 59h99v37q0 152 61 266q-49 60 -103.5 93.5t-129.5 33.5q-98 0 -160 -106q-53 -88 -53 -375v-625q0 -40 1 -62t6.5 -42t12 -28.5t24 -16t35 -10.5t52.5 -7v-53h-432v53q93 9 116 33t23 117v610
h-144l-6 23l54 59h96z" />
    <glyph glyph-name="longs_longs_i" unicode="&#x17f;&#x17f;i" horiz-adv-x="1638" 
d="M207 895v20q0 83 22 148q17 42 28 66t48.5 76t85.5 93q121 97 256 109q159 -3 248 -109q56 63 138 108t163 52q84 -3 141 -35t84 -69q25 -35 11 -68q-14 -29 -48 -49q-34 -24 -57 2q-98 121 -211 121q-86 0 -135 -78q-66 -96 -66 -371v-688q0 -57 4 -85.5t21 -47.5
t41 -25t76 -12v-53h-439v53q90 9 113 35t23 125v600h-146l-8 21l55 61h99v43q0 143 65 256q-95 125 -241 125q-92 0 -154 -94q-55 -88 -55 -387v-617q0 -56 3.5 -84t19.5 -47t38 -25t70 -12v-53h-432v53q51 6 74.5 12t40.5 23.5t20.5 44t3.5 78.5v602h-148l-6 21l56 61h98z
M1608 0h-447v53q66 7 92.5 20t36.5 43t10 101v414q0 39 -1 60.5t-7 40.5t-11.5 27.5t-23.5 16.5t-34.5 11.5t-51.5 9.5v47q158 25 291 80v-705q0 -55 4 -82.5t21.5 -46.5t42.5 -25t78 -12v-53z" />
    <glyph glyph-name="longs_longs_l" unicode="&#x17f;&#x17f;l" horiz-adv-x="1638" 
d="M1612 -2h-447v55q49 5 72 11t40 23.5t21.5 45.5t4.5 82v1067q-75 84 -183 84q-92 0 -145 -80q-57 -86 -57 -395v-662q0 -40 1.5 -64.5t7.5 -44.5t13.5 -30t25.5 -18t36.5 -11.5t52.5 -7.5v-53h-437v53q90 9 114 36t24 126v598h-146l-8 21l55 61h97v37q0 153 63 268
q-82 121 -231 121q-90 0 -152 -88q-63 -88 -63 -381v-623q0 -60 3.5 -89.5t19.5 -49t38 -25.5t70 -12v-53h-432v53q91 9 114 35.5t23 124.5v600h-146l-6 21l56 61h96v20q0 78 22 146q53 144 164 237q120 99 256 111q151 0 240 -106q59 60 133.5 103t146.5 52q99 0 158 -49
q52 13 127 49l10 -10v-1233q0 -101 24.5 -127t123.5 -35v-55z" />
    <glyph glyph-name="f_f" unicode="ff" horiz-adv-x="1148" 
d="M203 895v27q0 81 24 155q49 138 162 226q123 99 260 110q149 -5 238 -98q123 123 268 143q107 -3 166 -72q27 -34 10 -67q-10 -27 -43 -49q-31 -28 -59 0q-84 84 -168 84q-66 0 -107 -66q-48 -78 -45 -323l2 -70h244q9 -13 3.5 -41.5t-21.5 -38.5h-228v-602
q0 -56 3.5 -82t23.5 -44.5t48.5 -24t92.5 -11.5v-51h-456v51q47 6 68.5 12t37.5 24t19.5 45t3.5 81v602h-385v-602q0 -36 1.5 -58t7.5 -40.5t13.5 -28t25 -17t37.5 -11t54 -7.5v-51h-441v53q94 9 117 34.5t23 125.5v602h-146l-6 23l53 57h99zM750 895v39q0 102 16 158
q8 34 41 106q-36 54 -94 91.5t-133 37.5q-95 0 -152 -88q-63 -92 -63 -295v-49h385z" />
    <glyph glyph-name="f_f_i" unicode="ffi" horiz-adv-x="1634" 
d="M1599 0h-432v53q47 5 68.5 10.5t37.5 22t19.5 42.5t3.5 77v502q0 72 -15.5 90t-88.5 18h-281v-610q0 -95 21.5 -119t114.5 -33v-53h-429v53q49 5 71.5 10t38.5 22.5t19 42.5t3 77v610h-385v-602q0 -55 3 -81t19 -45t40 -24.5t75 -11.5v-51h-434v53q34 3 52.5 6t36 10
t24.5 16t13.5 27.5t7.5 41t1 59.5v602h-144l-8 21l55 59h97v41q0 70 22 147q42 131 172 232q121 90 256 104q88 -3 149 -33.5t91 -72.5q69 66 150 104t151 43q146 -5 221 -98q28 -38 12 -74q-21 -34 -47 -51q-40 -25 -65 6q-1 1 -14.5 16t-17 18.5l-17 17t-20.5 18.5
t-21 15.5t-25 15t-26 10.5t-30 8t-32 2q-86 0 -137 -76q-64 -83 -64 -311v-82h164q236 0 383 27v-717q0 -96 21.5 -119.5t119.5 -32.5v-53zM750 895v55q0 72 18 146q18 62 41 104q-34 55 -92 93t-133 38q-104 0 -158 -88q-61 -94 -61 -291v-57h385z" />
    <glyph glyph-name="f_f_l" unicode="ffl" horiz-adv-x="1640" 
d="M1608 0h-437v53q38 3 59 7.5t37.5 12.5t23 25.5t9.5 40.5t3 64v1071q-26 41 -75 67.5t-106 26.5q-87 0 -143 -70q-27 -34 -45.5 -113.5t-18.5 -195.5v-94h242q9 -11 2.5 -41.5t-22.5 -38.5h-219l-3 -610q0 -96 22 -119.5t116 -32.5v-53h-432v53q91 9 113 33t22 119v610
h-387v-602q0 -54 3.5 -80.5t20.5 -44.5t40 -23.5t73 -11.5v-53h-434v53q33 3 51.5 6t36.5 10.5t25.5 16.5t14 27.5t8 41t1.5 58.5v602h-146l-6 23l56 57h96v37q0 77 22 145q47 134 166 228q123 96 265 110q151 -5 237 -100q62 62 135.5 99.5t145.5 43.5q107 0 180 -51
q16 7 47.5 25.5t36.5 21.5l18 -10v-1241q0 -51 3.5 -76t21 -42t42.5 -22t79 -10v-53zM756 895v41q0 107 20 172q11 36 41 98q-32 50 -91 84.5t-134 34.5q-107 0 -164 -90q-59 -89 -59 -289v-51h387z" />
    <glyph glyph-name="longs_t" unicode="&#x17f;t" horiz-adv-x="1183" 
d="M111 895h96v45q0 89 22 160q34 144 168 252q110 91 221 106q98 -3 156 -61q30 -37 14 -74q-16 -28 -51 -53q-23 -14 -43 6q-82 82 -164 82q-61 0 -108 -70q-53 -85 -53 -391v-668q0 -109 24.5 -138t124.5 -38v-53h-448v53q93 10 115 36.5t22 121.5v604h-144l-10 21z
M1171 68l-141 -70q-53 -23 -84 -23q-97 0 -149 61.5t-52 182.5v596h-139l-10 21l57 59h92v139l134 137l28 -4v-272h232q12 -15 7.5 -41.5t-22.5 -38.5h-217v-526q0 -201 119 -201q57 0 125 33z" />
    <glyph glyph-name="f_i" unicode="fi" horiz-adv-x="1095" 
d="M1059 0h-434v53q47 4 69.5 9.5t37.5 22.5t18.5 42.5t3.5 77.5v502q0 71 -16.5 89.5t-88.5 18.5h-280v-610q0 -95 23 -119t120 -33v-53h-449v53q53 6 77.5 11.5t42.5 22.5t22 42.5t4 75.5v610h-148l-10 23l58 57h100v49q0 90 22 158q15 54 55 120t113 124q121 98 254 112
q83 -3 138 -33.5t79 -64.5q24 -36 11 -74q-19 -33 -45 -51q-38 -21 -60 4q-101 119 -213 119q-77 0 -127 -72q-67 -91 -67 -321v-70h161q242 0 385 27v-717q0 -35 1 -55.5t7.5 -38.5t14 -26t26 -15.5t39 -10.5t56.5 -6v-53z" />
    <glyph glyph-name="f_l" unicode="fl" horiz-adv-x="1091" 
d="M1063 0h-442v53q48 4 71.5 9.5t39 23t19 43t3.5 76.5v1069q-27 40 -77.5 66t-105.5 26q-86 0 -139 -74q-63 -81 -63 -288v-109h239q8 -13 2 -42t-22 -38h-219v-610q0 -95 21.5 -119t115.5 -33v-53h-443v53q36 4 56.5 7t39 10.5t26 16t14 26t7.5 37.5t1 55v610h-144l-8 23
l56 57h96v37q0 109 26 182q41 136 166 238q112 91 240 106q97 0 168 -47q15 4 29 10t36 18t27 15l16 -10v-1239q0 -51 4 -76t21.5 -42.5t43 -23t79.5 -10.5v-53z" />
    <glyph glyph-name=".notdef" horiz-adv-x="1024" 
d="M1024 0h-1024v1434h1024v-1434zM860 1331h-696l348 -522zM922 195v1044l-349 -522zM164 102h696l-348 523zM102 1239v-1044l349 522z" />
    <glyph glyph-name=".null" horiz-adv-x="0" 
 />
    <glyph glyph-name="nonmarkingreturn" horiz-adv-x="682" 
 />
    <glyph glyph-name="space" unicode=" " horiz-adv-x="464" 
 />
    <glyph glyph-name="exclam" unicode="!" horiz-adv-x="565" 
d="M279 1362q110 0 110 -62q0 -45 -14 -163q-24 -203 -60 -734q-7 -11 -35.5 -11t-35.5 11q-3 44 -10 150t-11 159t-10.5 136.5t-13.5 152.5t-15 136q-14 147 -14 163q0 62 109 62zM281 -25q-50 0 -82.5 33t-32.5 88q0 51 33 85t82 34q51 0 83.5 -34t32.5 -85q0 -55 -32 -88
t-84 -33z" />
    <glyph glyph-name="quotedbl" unicode="&#x22;" horiz-adv-x="651" 
d="M244 1454l12 -10q-9 -104 -53 -449l-58 -24q-14 132 -33 268t-26 160zM549 1454l12 -10q-4 -44 -22.5 -204.5t-30.5 -244.5l-57 -24q-47 388 -58 428z" />
    <glyph glyph-name="numbersign" unicode="#" horiz-adv-x="983" 
d="M918 930l-19 -119h-186l-62 -281h176l-20 -118h-182l-78 -357h-78l76 357h-221l-78 -357h-80l80 357h-197l21 118h204l60 281h-191l17 119h200l68 315h80l-70 -315h221l68 315h78l-66 -315h179zM633 811h-221l-58 -281h219z" />
    <glyph glyph-name="dollar" unicode="$" horiz-adv-x="983" 
d="M541 743l59 -22q289 -105 289 -342q0 -146 -92.5 -241t-255.5 -115v-179h-72v174q-186 0 -319 84q-30 108 -58 269l62 18q84 -276 315 -303v496l-74 32q-258 106 -258 314q0 127 87.5 219t244.5 110v162h72v-155q87 0 182 -27q38 -10 70 -16q28 -160 43 -256l-58 -15
q-12 42 -22.5 69.5t-29.5 60.5t-42 53.5t-59.5 38t-83.5 24.5v-453zM469 770v426q-92 -8 -141 -68t-49 -137q0 -148 190 -221zM541 557v-469q91 12 142.5 72.5t51.5 146.5q0 79 -36 137.5t-134 102.5z" />
    <glyph glyph-name="percent" unicode="%" horiz-adv-x="1548" 
d="M1217 1288l-828 -1354l-61 48l821 1353zM397 1300q60 0 110 -23t83.5 -60t57 -86t34 -99.5t10.5 -101.5t-10.5 -102t-33.5 -100t-56.5 -87t-84 -61t-110.5 -23t-110.5 23t-84.5 60.5t-57.5 87t-34 100t-10.5 100.5q0 65 17.5 128.5t52 119t93.5 90t134 34.5zM399 1239
q-45 0 -76.5 -32.5t-46 -84.5t-20.5 -98.5t-6 -93.5t6 -94t20.5 -99.5t46 -85.5t76.5 -33t76 33t45 86.5t19.5 99t5.5 91.5q0 48 -5.5 94t-19.5 99t-45 85.5t-76 32.5zM1159 721q60 0 110 -23t83.5 -61t57 -87t34 -100t10.5 -102t-10.5 -102t-34 -100t-57 -87t-83.5 -61
t-110 -23t-110.5 23t-84.5 60.5t-57.5 87t-34 100t-10.5 100.5q0 65 17.5 129t52 120t93.5 91t134 35zM1159 659q-44 0 -75 -32t-45.5 -84t-20.5 -99t-6 -96q0 -46 6 -93t20.5 -99.5t46 -85.5t76.5 -33q36 0 63 23.5t42 57t24 78.5t12 81t3 71q0 48 -5.5 94t-19.5 99
t-45 85.5t-76 32.5z" />
    <glyph glyph-name="ampersand" unicode="&#x26;" horiz-adv-x="1456" 
d="M1468 874v-57q-53 -6 -86.5 -15t-61 -31t-43 -41t-46.5 -64q-32 -46 -93 -141t-85 -132q85 -85 188.5 -208t144.5 -203l-14 -21q-79 7 -154 34t-96 50q-58 72 -178 199q-107 -145 -211 -209t-217 -64q-94 0 -172.5 33t-128 87t-77 119.5t-27.5 133.5q0 51 14 95t36 77.5
t58.5 68.5t73 62.5t87.5 64.5q8 6 13 9t12 8.5t13 9.5q-74 70 -111 138t-37 147q0 135 99.5 229.5t236.5 94.5q126 0 214.5 -81t88.5 -202q0 -106 -86 -180q-74 -62 -166 -123q177 -148 344 -318q67 104 123 236q30 70 6.5 97t-131.5 40v57h469zM586 1278q-73 0 -120.5 -57
t-47.5 -148q0 -76 44 -136.5t142 -135.5q76 56 114 118.5t38 143.5q0 89 -48 152t-122 63zM567 113q98 0 186 54t144 132q-171 186 -426 395q-186 -130 -186 -293q0 -70 25 -126.5t66.5 -91t90.5 -52.5t100 -18z" />
    <glyph glyph-name="quotesingle" unicode="'" horiz-adv-x="346" 
d="M244 1454l12 -10q-7 -87 -53 -449l-58 -24q-14 133 -33 268t-26 160z" />
    <glyph glyph-name="parenleft" unicode="(" horiz-adv-x="708" 
d="M614 -301l-36 -45q-218 147 -326.5 380.5t-108.5 520.5q0 284 108.5 516.5t326.5 380.5l36 -47q-152 -126 -236.5 -355t-84.5 -497q0 -267 85 -496.5t236 -357.5z" />
    <glyph glyph-name="parenright" unicode=")" horiz-adv-x="708" 
d="M92 1405l39 47q221 -149 326.5 -380t105.5 -519t-105.5 -518.5t-326.5 -380.5l-39 45q154 128 239 356.5t85 497.5q0 267 -86 497.5t-238 354.5z" />
    <glyph glyph-name="asterisk" unicode="*" horiz-adv-x="827" 
d="M745 1008l-270 -50l80 -280l-47 -21l-143 267l-250 -156l-31 45l211 191l-213 208l31 43l245 -163l119 270l51 -12l-57 -285l274 -4v-53z" />
    <glyph glyph-name="plus" unicode="+" horiz-adv-x="1187" 
d="M1083 471h-428v-471h-118v471h-431v100h431v426h118v-426h428v-100z" />
    <glyph glyph-name="comma" unicode="," horiz-adv-x="466" 
d="M193 264q64 0 126 -61t62 -160q0 -57 -23.5 -105.5t-64 -82t-85 -57t-95.5 -38.5l-23 60q158 66 158 172q0 53 -36 88.5t-93 48.5q-25 5 -25 51q0 37 30 60.5t69 23.5z" />
    <glyph glyph-name="hyphen" unicode="-" horiz-adv-x="729" 
d="M614 518l-30 -112h-467l28 112h469z" />
    <glyph glyph-name="period" unicode="." horiz-adv-x="466" 
d="M233 -25q-50 0 -82 33t-32 86q0 50 32.5 83.5t81.5 33.5t82 -33.5t33 -83.5q0 -53 -32.5 -86t-82.5 -33z" />
    <glyph glyph-name="slash" unicode="/" horiz-adv-x="677" 
d="M610 1362l-444 -1452h-115l445 1452h114z" />
    <glyph glyph-name="zero" unicode="0" horiz-adv-x="983" 
d="M492 1300q89 0 160.5 -39t118.5 -103t78 -150.5t44.5 -178.5t13.5 -190q0 -77 -9.5 -153t-29.5 -151.5t-53.5 -139.5t-78 -114t-107.5 -78t-137 -28q-111 0 -195 57t-131.5 153.5t-70.5 210t-23 241.5q0 93 14 184t46 178.5t79 153.5t119.5 106.5t161.5 40.5zM489 1233
q-54 0 -95.5 -34.5t-67.5 -91t-42.5 -135.5t-23 -159.5t-6.5 -171.5q0 -90 7.5 -172.5t25 -161t44.5 -136t68 -92t93 -34.5q66 0 113.5 51t72.5 140t36 188t11 215q0 117 -11.5 217t-37 188t-73.5 138.5t-114 50.5z" />
    <glyph glyph-name="one" unicode="1" horiz-adv-x="983" 
d="M786 0h-563v55q50 4 79.5 7.5t54 12.5t35 18.5t18 31.5t9 44.5t1.5 63.5v789q0 80 -15.5 99t-82.5 22l-99 4v47q177 31 365 106v-1067q0 -41 1.5 -63.5t9 -44.5t18.5 -31.5t35.5 -18.5t54 -12.5t79.5 -7.5v-55z" />
    <glyph glyph-name="two" unicode="2" horiz-adv-x="983" 
d="M844 287l57 -19q-16 -51 -42 -151.5t-30 -116.5h-766v47q214 210 332 348q57 69 95 119.5t79 117t61.5 131.5t20.5 128q0 129 -63.5 200.5t-177.5 71.5q-49 0 -93.5 -17.5t-79.5 -48.5t-58.5 -59.5t-47.5 -64.5l-45 41l117 166q108 120 276 120q91 0 168.5 -41
t126.5 -121t49 -184q0 -127 -60 -233t-210 -266l-291 -305h383q61 0 89.5 7.5t53.5 35.5t56 94z" />
    <glyph glyph-name="three" unicode="3" horiz-adv-x="983" 
d="M174 1016l-43 41l90 129q46 50 114 82t146 32q137 0 221 -76t84 -194q0 -82 -63 -145q-39 -41 -139 -111v-4q133 -26 208.5 -111t75.5 -200q0 -79 -29.5 -150.5t-77 -123t-106 -93t-119.5 -66.5t-113.5 -38t-90.5 -13q-63 0 -121 23t-84 47q-39 36 -33 74q2 32 47 67
q26 20 49 0q117 -104 254 -104q112 0 180 81t68 230q0 67 -24 120t-62.5 83t-83 45.5t-90.5 15.5q-58 0 -131 -22l-14 59q157 49 242 117t85 174q0 92 -54.5 142.5t-139.5 50.5q-137 0 -246 -162z" />
    <glyph glyph-name="four" unicode="4" horiz-adv-x="983" 
d="M934 365h-197v-148q0 -29 0.5 -46t3.5 -35t7 -27t14 -19t20.5 -14t31.5 -9t42 -7t55 -5v-55h-524v55q49 4 76 7t50.5 11.5t33.5 16.5t17 28.5t8 40t1 58.5v148h-532v57q354 528 614 872h82v-833h197v-96zM573 461v604h-4q-229 -318 -399 -604h403z" />
    <glyph glyph-name="five" unicode="5" horiz-adv-x="983" 
d="M311 1126l-53 -378q164 61 229 61q95 0 172 -30t125 -80t73.5 -111t25.5 -125q0 -193 -183 -342q-82 -67 -177.5 -105.5t-178.5 -40.5q-64 0 -123.5 23t-87.5 49q-21 23 -28.5 37.5t-4.5 32.5q3 32 43 67q28 22 56 0q115 -104 252 -104q123 0 191.5 89t68.5 214
q0 140 -86 224.5t-248 84.5q-104 0 -211 -41l80 625h583l13 -16l-54 -134h-477z" />
    <glyph glyph-name="six" unicode="6" horiz-adv-x="983" 
d="M281 702l137 68q79 35 129 35q162 0 265 -109t103 -270q0 -122 -52.5 -224.5t-149.5 -164.5t-217 -62q-183 0 -301.5 140t-118.5 372q0 129 34.5 243.5t88.5 195.5t126 148t140.5 107t138.5 66q116 41 262 66l15 -66q-113 -20 -224 -71q-43 -20 -82 -44.5t-86.5 -66
t-85.5 -90.5t-71.5 -120t-50.5 -153zM467 690q-94 0 -197 -57q-12 -47 -12 -141q0 -124 32.5 -225t95 -161.5t144.5 -60.5q57 0 99.5 28.5t65.5 75t33.5 97.5t10.5 106q0 65 -17 124.5t-49 108t-85.5 77t-120.5 28.5z" />
    <glyph glyph-name="seven" unicode="7" horiz-adv-x="983" 
d="M915 1276l17 -25q-76 -163 -273 -591t-307 -664l-151 -21l-15 23q363 588 609 1128h-443q-36 0 -58 -1.5t-42 -8.5t-30.5 -15t-23 -28.5t-20.5 -40.5t-22 -59h-60q22 138 37 303h782z" />
    <glyph glyph-name="eight" unicode="8" horiz-adv-x="983" 
d="M508 1300q144 0 239 -88.5t95 -214.5q0 -94 -60 -163q-13 -17 -56 -53t-105 -79q60 -34 103 -65.5t84 -74.5t62 -97.5t21 -118.5q0 -86 -38.5 -158.5t-99.5 -117.5t-131 -70t-137 -25q-170 0 -281.5 93.5t-111.5 253.5q0 106 92 194q49 46 181 131q-222 127 -222 318
q0 134 103 234.5t262 100.5zM487 1235q-86 0 -138 -63.5t-52 -147.5q0 -44 15 -82t36 -65t60 -55t70.5 -45.5t84.5 -43.5q125 98 125 254q0 120 -61 184t-140 64zM506 41q96 0 158.5 68t62.5 184q0 55 -23.5 102.5t-70.5 87t-93 68t-116 63.5q-76 -52 -122 -125t-46 -155
q0 -135 73.5 -214t176.5 -79z" />
    <glyph glyph-name="nine" unicode="9" horiz-adv-x="983" 
d="M496 1300q124 0 217.5 -70.5t140.5 -185.5t47 -256q0 -273 -133.5 -469.5t-349.5 -283.5q-76 -31 -159 -48.5t-128 -17.5l-10 62q222 37 378 185.5t206 379.5l-138 -74q-59 -33 -123 -33q-161 0 -263.5 106t-102.5 269q0 75 29 151.5t80.5 140.5t132.5 104t176 40z
M469 1233q-56 0 -99.5 -29t-67.5 -75t-36 -95t-12 -98q0 -140 74.5 -235t199.5 -95q109 0 185 58q8 60 8 135q0 58 -7 114.5t-25 115.5t-45 103.5t-72.5 72.5t-102.5 28z" />
    <glyph glyph-name="colon" unicode=":" horiz-adv-x="466" 
d="M233 842q50 0 82.5 -32t32.5 -83q0 -52 -32.5 -85.5t-82.5 -33.5q-49 0 -80.5 33t-31.5 86q0 51 31 83t81 32zM236 -25q-50 0 -82.5 33t-32.5 86q0 50 33 83.5t82 33.5t81.5 -33.5t32.5 -83.5q0 -53 -32 -86t-82 -33z" />
    <glyph glyph-name="semicolon" unicode=";" horiz-adv-x="466" 
d="M233 842q50 0 81.5 -32.5t31.5 -84.5q0 -51 -32 -84t-81 -33q-50 0 -82 33t-32 84q0 52 32 84.5t82 32.5zM193 266q65 0 126.5 -61.5t61.5 -159.5q0 -57 -23.5 -106t-63.5 -83.5t-84 -58t-95 -39.5l-23 62q156 65 156 172q0 54 -35.5 89t-91.5 48q-10 2 -18.5 15t-8.5 36
q0 37 30.5 61.5t68.5 24.5z" />
    <glyph glyph-name="less" unicode="&#x3c;" horiz-adv-x="1130" 
d="M1010 0l-887 471v96l887 471v-114l-766 -404v-4l766 -401v-115z" />
    <glyph glyph-name="equal" unicode="=" horiz-adv-x="1187" 
d="M1083 657h-977v103h977v-103zM1083 283h-977v102h977v-102z" />
    <glyph glyph-name="greater" unicode="&#x3e;" horiz-adv-x="1130" 
d="M1008 471l-885 -471v115l766 401v4l-766 404v114l885 -471v-96z" />
    <glyph glyph-name="question" unicode="?" horiz-adv-x="776" 
d="M449 442l-37 -47q-73 27 -150.5 105t-77.5 162q0 53 38.5 104.5t133.5 124.5q3 2 23.5 17t27 20t26 19.5t28 22t25 22.5t24.5 24.5t19 24t16.5 26t9.5 25t4 26.5q0 54 -33 83.5t-90 29.5q-44 0 -87 -17.5t-69 -38t-48 -38t-29 -17.5q-23 0 -53.5 28t-30.5 62q0 37 43 74
t99.5 57.5t90.5 20.5q127 0 227.5 -101t100.5 -227q0 -54 -22.5 -95.5t-75.5 -84.5q-12 -10 -61 -46.5t-79.5 -61.5t-59 -64.5t-28.5 -73.5q0 -49 23 -85.5t72 -80.5zM377 -25q-48 0 -80.5 33t-32.5 86q0 49 33 83t80 34q49 0 82 -33.5t33 -83.5q0 -53 -32.5 -86t-82.5 -33z
" />
    <glyph glyph-name="at" unicode="@" horiz-adv-x="1542" 
d="M1116 -29l23 -57q-189 -111 -416 -111q-124 0 -234 39.5t-196.5 115t-137.5 196.5t-51 272q1 140 44.5 262.5t119 212.5t174.5 155t213 97.5t232 32.5q134 0 244 -42.5t181 -115t109.5 -167.5t38.5 -202q0 -138 -63 -254.5t-174.5 -184.5t-245.5 -68q-52 0 -76 19
t-23.5 51t7.5 75l22 117l-4 2q-57 -83 -169.5 -173.5t-178.5 -90.5q-40 0 -69 44t-29 128q0 95 41 200t125 185q155 148 327 151q13 1 31.5 -1.5t41.5 -7t30 -5.5q48 -10 69 -10q-42 -168 -100 -465q-14 -82 -5.5 -108t46.5 -25q53 2 105 29.5t96 78t71 132.5t27 181
q0 208 -134.5 327.5t-350.5 119.5q-188 0 -334.5 -85t-225.5 -235t-79 -340q0 -84 17.5 -161t59 -149.5t103 -125t157 -84.5t213.5 -32q84 0 182.5 25.5t145.5 51.5zM866 778q-77 0 -135 -61q-46 -53 -82 -151t-37 -193q0 -52 11 -71t32 -19q33 0 109.5 64.5t159.5 180.5
q19 58 53 228q-50 22 -111 22z" />
    <glyph glyph-name="A" unicode="A" horiz-adv-x="1415" 
d="M1378 0h-501v57q97 12 118.5 32.5t1.5 80.5q-21 62 -112 315h-436q-65 -181 -91 -264q-12 -34 -17.5 -56t-3.5 -40.5t10 -29t27 -18.5t44.5 -12t66.5 -8v-57h-444v57q55 8 81 15t54 30t47 59.5t47 106.5l424 1075l64 19q28 -78 173 -483.5t222 -614.5q26 -70 43.5 -105.5
t44 -59t55 -30.5t82.5 -12v-57zM856 573l-180 523h-4q-98 -260 -193 -523h377z" />
    <glyph glyph-name="B" unicode="B" horiz-adv-x="1204" 
d="M762 723v-6q362 -55 362 -326q0 -199 -196 -309q-150 -82 -402 -82h-452v57q49 3 75.5 6t51 12.5t34 19.5t17.5 34.5t9 50.5t1 74v825q0 48 -1 73t-7.5 50t-15.5 34.5t-31 19t-47 12.5t-70 6v57h526q211 0 308 -69q54 -36 84 -99t30 -135q0 -69 -26 -124.5t-70 -90.5
t-87.5 -56t-92.5 -34zM434 741h96q166 0 243 66t77 197q0 114 -67 188t-205 74q-82 0 -117 -21q-27 -18 -27 -102v-402zM434 674v-418q0 -110 35.5 -148t134.5 -38q138 2 228 76.5t90 224.5q0 303 -394 303h-94z" />
    <glyph glyph-name="C" unicode="C" horiz-adv-x="1361" 
d="M1257 360l60 -22q-70 -226 -117 -313q-228 -56 -377 -56q-148 0 -271.5 39.5t-207.5 105.5t-142.5 154t-85 183.5t-26.5 195.5q0 211 101.5 374.5t281 252t406.5 88.5q74 0 147 -10.5t141 -27t74 -17.5q36 -261 41 -310l-61 -14q-39 161 -134.5 233t-263.5 72
q-124 0 -225.5 -50t-165.5 -134t-98.5 -191t-34.5 -225q0 -141 40.5 -262t111.5 -204.5t170.5 -131t214.5 -47.5q150 0 245 77t176 240z" />
    <glyph glyph-name="D" unicode="D" horiz-adv-x="1505" 
d="M86 1331h576q396 0 579 -174q172 -169 172 -440q0 -357 -252 -547q-220 -170 -608 -170h-485v55q49 3 76 6.5t51.5 12.5t35 19.5t18.5 34.5t9.5 51t1.5 75v821q0 48 -1.5 75.5t-9 51t-16.5 34t-32.5 19t-46.5 11.5t-68 6v59zM436 1120v-852q0 -113 49.5 -153.5
t167.5 -40.5q139 0 248 49.5t176 135t101 194.5t34 235q0 163 -60.5 291.5t-180.5 198.5q-131 84 -348 84q-124 0 -160 -25q-15 -11 -21 -34.5t-6 -82.5z" />
    <glyph glyph-name="E" unicode="E" horiz-adv-x="1163" 
d="M1057 332l61 -8q-35 -197 -71 -324h-988v57q76 6 111.5 12.5t59 29.5t28 55t4.5 100v815q0 50 -1.5 78.5t-9.5 53t-16.5 35t-32.5 19.5t-46.5 12t-69.5 7v57h913l17 -295l-60 -10q-22 104 -65 176q-22 32 -72.5 45t-159.5 13h-155q-47 0 -57.5 -10t-10.5 -56v-465h193
q49 0 78.5 1.5t54.5 8.5t36.5 15t22.5 29t16 40.5t13 59.5h59v-394h-59q-8 41 -13 63.5t-16.5 43t-23 29t-37 15.5t-53 8t-76.5 1h-195v-387q0 -72 10.5 -109t38.5 -57q27 -17 74 -21.5t139 -4.5q116 0 170 14.5t88 54.5q61 71 101 193z" />
    <glyph glyph-name="F" unicode="F" horiz-adv-x="1083" 
d="M1010 1030l-62 -8q-12 64 -24 98.5t-33 65.5q-25 43 -72 58.5t-162 15.5h-155q-45 0 -55.5 -10t-10.5 -54v-487h211q49 0 79 1.5t55 9t36.5 14.5t22.5 27.5t15.5 39t12.5 57.5h58v-393h-58q-8 42 -12.5 61.5t-15.5 42.5t-23 31t-36 16.5t-54.5 10.5t-79.5 2h-211v-371
q0 -48 1.5 -75.5t10.5 -52t19.5 -35t37 -19.5t54.5 -12.5t80 -6.5v-57h-557v57q46 3 71 6.5t48 12.5t33 20t17.5 35t9 51.5t1.5 75.5v815q0 48 -1.5 76t-9 52t-16.5 35t-32 20t-46.5 12t-68.5 6v57h901q0 -99 21 -301z" />
    <glyph glyph-name="G" unicode="G" horiz-adv-x="1464" 
d="M1417 616v-55q-92 -13 -111.5 -35.5t-19.5 -113.5v-174q0 -129 14 -193q-2 -1 -47.5 -12t-56 -13.5t-52.5 -12t-60.5 -12.5t-56.5 -9.5t-63.5 -9t-58.5 -5t-63 -2.5q-337 0 -544.5 190.5t-207.5 495.5q0 138 43 255t117 199.5t173.5 140t213 85t235.5 27.5q59 0 127 -8
t106 -15.5t99 -21.5t62 -14q14 -168 32 -320l-57 -12q-18 91 -55 154.5t-90.5 98t-115 49.5t-138.5 15q-239 0 -391 -164.5t-152 -443.5q0 -91 21 -180t66.5 -172.5t110.5 -147t161 -101.5t210 -38q107 0 179 37q35 19 50 46t15 87v174q0 41 -1.5 63.5t-10 43.5t-20 30.5
t-39 18t-58.5 12.5t-86 8v55h520z" />
    <glyph glyph-name="H" unicode="H" horiz-adv-x="1568" 
d="M1493 1331v-57q-47 -4 -72.5 -7t-49.5 -12t-33.5 -19.5t-17.5 -34t-9.5 -50t-1.5 -72.5v-827q0 -47 1.5 -74t9.5 -50t17.5 -33.5t33.5 -19.5t48.5 -12t71.5 -6v-57h-549v57q49 3 75 6t51.5 12t35.5 19.5t19 33.5t10.5 50.5t1.5 73.5v410h-699v-410q0 -46 1.5 -73t9.5 -50
t18 -34t34 -19.5t49.5 -12t72.5 -6.5v-57h-539v57q46 3 70.5 6t48.5 12t33 19.5t17 33.5t9.5 50t1.5 74v827q0 47 -1.5 73.5t-9.5 50t-17.5 33.5t-34 19t-49 12t-72.5 7v57h530v-57q-44 -4 -67.5 -7t-46 -12t-31.5 -19.5t-16.5 -33.5t-9 -50t-1.5 -73v-331h699v331
q0 46 -1.5 73t-9.5 50t-17 33.5t-32.5 19.5t-47.5 12t-69 7v57h535z" />
    <glyph glyph-name="I" unicode="I" horiz-adv-x="698" 
d="M621 0h-543v57q47 3 72.5 6.5t49.5 12.5t33.5 19.5t17.5 34.5t9.5 51.5t1.5 74.5v819q0 47 -1.5 74.5t-9.5 51.5t-17.5 34.5t-33.5 19.5t-49.5 12.5t-72.5 6.5v57h543v-57q-47 -3 -72.5 -6.5t-49.5 -12.5t-34 -19.5t-18 -34.5t-9.5 -51.5t-1.5 -74.5v-819
q0 -48 1.5 -75.5t9.5 -51.5t18 -34.5t34 -19.5t49.5 -12t72.5 -6v-57z" />
    <glyph glyph-name="J" unicode="J" horiz-adv-x="673" 
d="M621 1331v-57q-65 -5 -95 -11t-51 -29t-25 -56.5t-4 -102.5v-766q0 -200 -38 -318t-138 -210q-101 -91 -190 -119l-27 57q165 82 197 269q22 120 22 389v698q0 70 -4 103t-25.5 56t-53 29t-99.5 11v57h531z" />
    <glyph glyph-name="K" unicode="K" horiz-adv-x="1378" 
d="M1366 0h-315q-71 80 -148 170.5t-194 229.5t-166 196q-33 39 -58 50.5t-53 6.5v-389q0 -48 2 -77t10.5 -53.5t19 -36.5t34.5 -21t50 -12.5t73 -6.5v-57h-533v57q43 3 67.5 6.5t46.5 13t32 21t17.5 36t9 53.5t1.5 77v801q0 50 -1.5 79.5t-9.5 54.5t-17.5 36t-33.5 20.5
t-48 12.5t-70 6v57h528v-57q-44 -3 -68.5 -6.5t-47.5 -13t-33 -21t-17.5 -36t-9.5 -54t-2 -78.5v-358q59 16 143 94q234 226 345 362q46 55 40 76.5t-75 28.5l-45 6v57h491v-57q-117 -11 -176.5 -38t-157.5 -116q-101 -93 -362 -358q107 -132 248.5 -295t232.5 -262
q79 -85 126 -112t124 -36v-57z" />
    <glyph glyph-name="L" unicode="L" horiz-adv-x="1101" 
d="M1014 334l61 -12q-36 -189 -74 -322h-927v57q48 3 74.5 6.5t50.5 12.5t34 20t18 35.5t9.5 51.5t1.5 75v819q0 48 -1.5 74.5t-9 50.5t-16.5 34.5t-33 19.5t-48.5 12t-71.5 6v57h534v-57q-46 -3 -70 -6t-48 -12t-33.5 -19.5t-17.5 -34t-9.5 -51t-1.5 -74.5v-809
q0 -84 10 -120.5t37 -51.5q46 -26 197 -26q92 0 144 12.5t85 50.5q63 74 105 201z" />
    <glyph glyph-name="M" unicode="M" horiz-adv-x="1824" 
d="M1763 0h-538v57q35 3 55.5 5.5t41.5 9t31 12t20.5 20.5t14 28.5t6.5 41.5t3 54.5v72.5l-6 836h-9l-499 -1123h-41l-459 1094h-4l-31 -584q-9 -198 -6 -340q3 -70 41.5 -93t146.5 -34v-57h-477v57q91 11 127.5 35.5t46.5 87.5q24 170 39 375l29 426q5 75 7 113.5
t-4.5 75.5t-14.5 51t-34 27.5t-52 17t-80 8.5v57h336l467 -1024l473 1024h348v-57q-32 -3 -49.5 -4.5t-39.5 -5.5t-32.5 -7t-24.5 -11t-18.5 -15t-12 -21t-9 -28t-3.5 -36.5t-1.5 -46t1.5 -57.5l21 -741q2 -63 3.5 -93t9.5 -62t17 -43t33.5 -23t50.5 -15t76 -8v-57z" />
    <glyph glyph-name="N" unicode="N" horiz-adv-x="1521" 
d="M1473 1331v-57q-89 -5 -128 -31t-45 -92q-12 -91 -12 -344v-825h-63l-873 1073h-4v-514q0 -228 12 -346q7 -76 48.5 -104t148.5 -34v-57h-485v57q92 5 132.5 32.5t47.5 100.5q12 126 12 351v450q0 110 -6 139.5t-35 67.5q-30 38 -69.5 54t-112.5 22v57h303l854 -1028h6
v504q0 207 -14 340q-7 68 -50.5 94.5t-150.5 32.5v57h484z" />
    <glyph glyph-name="O" unicode="O" horiz-adv-x="1529" 
d="M778 1362q130 0 250 -49.5t211.5 -136.5t146 -215.5t54.5 -278.5q0 -162 -54 -297.5t-147 -225.5t-217.5 -140t-265.5 -50q-137 0 -260 52t-212.5 141.5t-141.5 216.5t-52 272q0 111 30 215.5t89 194t140.5 157t192 106t236.5 38.5zM737 1288q-87 0 -165 -37.5
t-139.5 -108t-97.5 -182.5t-36 -251q0 -190 64.5 -342.5t178.5 -238t257 -85.5q87 0 163.5 37t137 107t96 183.5t35.5 256.5q0 158 -39.5 285t-107.5 208t-156.5 124.5t-190.5 43.5z" />
    <glyph glyph-name="P" unicode="P" horiz-adv-x="1153" 
d="M94 1331h506q228 0 344 -86q133 -98 133 -289q0 -95 -34 -172.5t-91.5 -127t-126.5 -79t-147 -40.5q-53 -3 -92 0l-152 38v-321q0 -47 1.5 -74.5t10.5 -51t19.5 -34t37.5 -19.5t54.5 -12t79.5 -6v-57h-555v57q67 5 98.5 11.5t52.5 29.5t25 56t4 102v819q0 49 -1.5 77
t-9 52t-16 34.5t-31 19t-44.5 11t-66 5.5v57zM434 1145v-502q68 -25 150 -25q43 0 82.5 9t79.5 33t69 60.5t47.5 95.5t18.5 134q0 157 -87.5 236.5t-222.5 79.5q-89 0 -114 -25q-23 -20 -23 -96z" />
    <glyph glyph-name="Q" unicode="Q" horiz-adv-x="1525" 
d="M1475 -283l-17 -43q-133 -3 -262 31q-56 14 -178 80.5t-293 185.5q-103 5 -218.5 48t-203.5 128q-98 91 -155.5 220t-57.5 276q0 143 48 272.5t135 229t220 158.5t293 59q129 0 247.5 -49.5t208.5 -137.5t144 -218t54 -281q0 -131 -38 -246t-104 -198t-148 -141t-175 -87
q253 -175 500 -287zM713 51l139 45q9 -6 27.5 -19.5t27.5 -19.5q63 18 120 62t103.5 112t73.5 168t27 219q0 311 -138.5 489.5t-355.5 178.5q-87 0 -164.5 -37.5t-139 -109t-98 -185.5t-36.5 -256q0 -256 115.5 -433t298.5 -214z" />
    <glyph glyph-name="R" unicode="R" horiz-adv-x="1271" 
d="M1292 37l-8 -53q-47 0 -72 2q-117 6 -190 46.5t-141 139.5q-25 35 -55.5 82t-50.5 79t-55 90.5t-46 76.5q-28 45 -64 63.5t-112 18.5h-66v-326q0 -47 1.5 -74.5t9.5 -51.5t18 -35t33.5 -19.5t48.5 -12t71 -6.5v-57h-538v57q47 3 72.5 6.5t50 12.5t34 19.5t18 34.5
t10 51.5t1.5 74.5v823q0 47 -1.5 74t-9.5 50.5t-16.5 33.5t-32.5 18.5t-46.5 11.5t-69.5 7v57h508q222 0 328 -69q63 -41 99 -110t36 -159q0 -237 -260 -350q52 -101 182 -297q95 -137 166 -213q67 -75 147 -96zM432 649h98q152 0 224 58q112 85 112 254q0 80 -24.5 140
t-67.5 94.5t-95.5 51.5t-113.5 17q-82 0 -110 -21q-23 -16 -23 -90v-504z" />
    <glyph glyph-name="S" unicode="S" horiz-adv-x="970" 
d="M838 1032l-60 -12q-13 47 -25 79.5t-34 72t-48.5 63.5t-68 40.5t-92.5 16.5q-111 0 -169 -66.5t-58 -158.5q0 -55 16.5 -98t54 -79t79.5 -63.5t110 -62.5q48 -25 71 -37t68 -39t68.5 -47t56.5 -53.5t49 -65.5t28.5 -75t12.5 -91q0 -164 -127 -275.5t-328 -111.5
q-87 0 -200 31q-65 23 -101 43q-24 65 -55 317l59 15q11 -43 27 -83t45 -87t64 -81.5t87.5 -57.5t112.5 -23q115 0 180.5 66.5t65.5 179.5q0 44 -14 82.5t-34.5 66.5t-58 57.5t-71.5 49.5t-88 49q-129 69 -184 112q-154 121 -154 291q0 153 115 259t307 106q111 0 258 -47
q1 -6 35 -283z" />
    <glyph glyph-name="T" unicode="T" horiz-adv-x="1263" 
d="M1212 1020l-59 -6q-32 137 -66 182q-26 38 -67.5 51t-153.5 13h-145v-1008q0 -45 1.5 -70.5t10 -49t20.5 -34.5t38 -20.5t57.5 -13.5t83.5 -7v-57h-588v57q50 3 80 7t55 13.5t36.5 20.5t19.5 34.5t10 49.5t2 70v1008h-127q-123 0 -170 -13.5t-68 -50.5q-24 -33 -65 -182
h-60q21 261 25 368h41q20 -33 43 -42t70 -9h808q40 0 59.5 10t45.5 41h43q0 -124 20 -362z" />
    <glyph glyph-name="U" unicode="U" horiz-adv-x="1507" 
d="M1466 1331v-57q-93 -6 -133 -32.5t-47 -88.5q-10 -92 -10 -332v-170q0 -191 -35 -320.5t-121 -219.5q-68 -71 -164 -106.5t-202 -35.5q-201 0 -328 99q-92 71 -136 189t-44 298v512q0 50 -1.5 78.5t-9.5 53.5t-16.5 35.5t-32.5 20t-47.5 12.5t-70.5 7v57h530v-57
q-45 -3 -70 -6t-48 -12t-32.5 -20t-17 -36t-9 -54t-1.5 -79v-467q0 -250 98 -384t287 -134q87 0 153.5 28.5t110.5 79t72 125t39.5 160.5t11.5 191v155q0 228 -14 338q-9 60 -50.5 83.5t-148.5 31.5v57h487z" />
    <glyph glyph-name="V" unicode="V" horiz-adv-x="1439" 
d="M1407 1331v-57q-57 -7 -86.5 -14.5t-58 -32.5t-48.5 -62t-51 -110q-287 -693 -426 -1075h-63q-223 610 -424 1112q-23 59 -40.5 91.5t-43.5 52t-52.5 26t-76.5 10.5v59h502v-57q-107 -12 -127 -33t6 -88q117 -319 340 -893h4q240 603 323 860q30 88 7.5 113.5
t-146.5 40.5v57h461z" />
    <glyph glyph-name="W" unicode="W" horiz-adv-x="1988" 
d="M1958 1331v-57q-39 -5 -61.5 -9.5t-44.5 -14.5t-34.5 -21.5t-27.5 -35.5t-25.5 -51t-27.5 -73q-98 -273 -338 -1089h-64q-66 192 -200.5 572t-157.5 447h-4q-55 -171 -167.5 -509t-166.5 -510h-64q-70 238 -335 1093q-20 65 -35.5 100.5t-41 57t-52 29t-78.5 14.5v57h497
v-57q-110 -13 -129 -37t7 -102q180 -619 249 -844h5q54 171 166 511t165 509h60q112 -328 358 -1020h4q63 200 135 454t97 365q24 92 0.5 121.5t-142.5 42.5v57h453z" />
    <glyph glyph-name="X" unicode="X" horiz-adv-x="1339" 
d="M1341 0h-538v57q94 10 113 30t-11 71q-160 263 -272 438q-144 -223 -248 -414q-38 -66 -20.5 -89.5t118.5 -35.5v-57h-469v57q90 9 143.5 34.5t96.5 82.5q119 153 334 490q-63 102 -165 264t-110 174q-65 101 -109 130.5t-151 41.5v57h502v-57q-88 -10 -105.5 -28.5
t9.5 -57.5q77 -133 235 -373q139 215 201 332q40 67 22.5 91t-118.5 36v57h469v-57q-80 -8 -123 -22t-77.5 -43.5t-82.5 -92.5q-93 -127 -250 -366q300 -468 324 -504q71 -107 123.5 -143t158.5 -46v-57z" />
    <glyph glyph-name="Y" unicode="Y" horiz-adv-x="1298" 
d="M1270 1331v-57q-103 -12 -143 -39t-101 -123q-143 -234 -260 -448q-20 -40 -26.5 -64.5t-6.5 -64.5v-279q0 -47 1.5 -74t10 -51t20 -35t37.5 -20t55 -12.5t81 -6.5v-57h-580v57q51 3 78.5 6.5t54 12.5t37 19.5t19.5 34.5t10.5 51.5t1.5 74.5v272q0 30 -8 52t-35 69
q-208 368 -258 451q-63 107 -100 136t-127 38v57h489v-57q-44 -5 -70 -12t-40 -15t-14.5 -21.5t4.5 -26.5t18 -36q39 -74 82.5 -152t107.5 -188t84 -145q178 316 244 461q37 76 18 99.5t-137 35.5v57h453z" />
    <glyph glyph-name="Z" unicode="Z" horiz-adv-x="1234" 
d="M1149 360l61 -12q-4 -21 -20 -98.5t-30.5 -145t-24.5 -104.5h-1059l-17 31q63 89 264 372t335.5 474t263.5 380h-357q-110 0 -166.5 -7.5t-80 -21.5t-42.5 -44q-38 -56 -69 -178h-62q24 308 25 376h49q18 -33 39 -42t70 -9h817l14 -28q-579 -824 -846 -1217
q102 -12 334 -12q192 0 270 15t121 61q56 62 111 210z" />
    <glyph glyph-name="bracketleft" unicode="[" horiz-adv-x="706" 
d="M594 -334h-348v1774h348v-58q-61 -4 -92.5 -7.5t-61 -13t-40 -18t-19 -32.5t-9.5 -46t-1 -69v-1286q0 -47 0.5 -68.5t9.5 -46t19 -32.5t39.5 -18t61 -13t93.5 -8v-58z" />
    <glyph glyph-name="backslash" unicode="\" horiz-adv-x="681" 
d="M612 -90h-116l-422 1452h114z" />
    <glyph glyph-name="bracketright" unicode="]" horiz-adv-x="706" 
d="M463 -334h-350v58q61 5 93 8.5t62 13.5t40.5 18.5t19 33t9.5 47t1 69.5v1282q0 47 -1 69t-9.5 46t-19 32.5t-40.5 18.5t-62 13.5t-93 8.5v56h350v-1774z" />
    <glyph glyph-name="asciicircum" unicode="^" horiz-adv-x="1159" 
d="M1016 432h-121l-317 709l-322 -709h-113l394 844h88z" />
    <glyph glyph-name="underscore" unicode="_" horiz-adv-x="1024" 
d="M1024 -256h-1024v102h1024v-102z" />
    <glyph glyph-name="grave" unicode="`" 
d="M506 1032l-55 -26q-78 109 -240 327l6 17q14 8 76 18.5t84 7.5q19 -47 64 -170.5t65 -173.5z" />
    <glyph glyph-name="a" unicode="a" horiz-adv-x="899" 
d="M887 80l-174 -105q-23 0 -51 11.5t-46 27.5q-33 35 -49 92q-12 -8 -49 -33.5t-55.5 -37.5t-47.5 -29t-50.5 -24t-38.5 -7q-106 0 -176 75t-70 175q0 146 166 203q261 87 317 133v37q0 108 -47 169.5t-125 61.5q-59 0 -92 -41q-36 -36 -61 -135q-11 -47 -60 -47
q-30 0 -60 27t-30 61q0 21 15.5 38.5t50.5 43.5q57 41 143 85t164 59q100 0 168 -56q92 -75 92 -250v-381q0 -64 21 -93t51 -29q36 0 73 22zM563 172v320q-6 -3 -184 -86q-64 -30 -94.5 -63.5t-30.5 -86.5q0 -74 45.5 -116t99.5 -42q39 1 86.5 23t77.5 51z" />
    <glyph glyph-name="b" unicode="b" horiz-adv-x="1040" 
d="M311 827l166 72q49 21 84 21q166 0 285 -125.5t119 -305.5q0 -146 -71.5 -265t-188.5 -184t-254 -65q-143 0 -301 74v1139q0 37 -0.5 55t-6 37.5t-12.5 26.5t-24 15t-37 11t-56 6v47q146 18 297 72v-631zM311 766v-528q0 -41 13 -70q11 -39 60 -76.5t122 -38.5
q128 0 203 102.5t75 280.5q0 169 -90 269t-223 100q-97 0 -160 -39z" />
    <glyph glyph-name="c" unicode="c" horiz-adv-x="866" 
d="M801 227l35 -43q-69 -92 -164.5 -150.5t-184.5 -58.5q-124 0 -219 62t-142.5 158t-47.5 208q0 243 205 402q74 57 158 86t151 29q58 0 106.5 -16t75.5 -38q33 -28 33 -63q0 -30 -24.5 -59t-43.5 -29q-14 0 -39 22q-90 84 -204 84q-107 0 -180.5 -86.5t-73.5 -240.5
q0 -82 21.5 -148.5t54 -108.5t75 -70.5t82 -40t76.5 -11.5q69 0 125.5 24t124.5 88z" />
    <glyph glyph-name="d" unicode="d" horiz-adv-x="1081" 
d="M1059 104v-51q-201 -36 -318 -78v134l-125 -74q-102 -60 -159 -60q-63 0 -128.5 28.5t-122 81.5t-92.5 138.5t-36 188.5q0 139 73.5 256.5t195 184.5t259.5 67q67 0 135 -23v289q0 38 -1 58t-7.5 38.5t-14 26t-29 14.5t-42.5 9t-63 5v49q185 24 319 72v-1222
q0 -78 15.5 -98.5t74.5 -26.5zM741 174v565q-35 52 -92 78.5t-119 26.5q-31 0 -64 -10t-70 -37.5t-65.5 -68t-47.5 -108.5t-19 -153q0 -88 25 -159t66.5 -114.5t90 -66.5t99.5 -23q103 0 196 70z" />
    <glyph glyph-name="e" unicode="e" horiz-adv-x="870" 
d="M776 217l33 -43q-59 -75 -129.5 -122.5t-118.5 -62t-86 -14.5q-122 0 -214.5 61.5t-138.5 160t-46 215.5q0 210 135 358q63 71 142.5 110.5t158.5 39.5q125 0 216 -95t91 -217q0 -31 -10 -45t-37 -20q-33 -6 -201.5 -18t-332.5 -17q1 -100 28 -178.5t72 -123.5t97 -68
t108 -23q125 0 233 102zM463 844q-74 0 -133.5 -66t-81.5 -186q168 0 346 6q27 0 38 9.5t11 31.5q2 83 -48 144t-132 61z" />
    <glyph glyph-name="f" unicode="f" horiz-adv-x="606" 
d="M111 895h96v45q0 97 22 168q45 144 158 240q109 96 225 110q106 -3 162 -69q27 -34 10 -72q-10 -25 -39 -49q-29 -23 -55 6q-84 76 -166 76q-69 0 -108 -62q-50 -72 -47 -311v-82h241q10 -13 3.5 -42t-23.5 -38h-221v-590q0 -42 1 -65t9 -44t16.5 -29.5t32.5 -16.5
t47 -11t70 -8v-51h-484v53q54 5 79 10.5t42.5 23t21 44t3.5 80.5v604h-144l-8 21z" />
    <glyph glyph-name="g" unicode="g" horiz-adv-x="958" 
d="M946 897l12 -16q-15 -28 -42 -60.5t-50 -44.5l-116 6q61 -70 61 -182q0 -80 -31 -144t-83 -103.5t-114.5 -60t-129.5 -20.5q-14 0 -105 11q-23 -15 -42 -39t-19 -45q0 -34 32 -57t97 -23q38 0 110 1t105 1q42 0 80 -5.5t78.5 -22t69.5 -42.5t48 -70t19 -102
q0 -76 -42 -150.5t-111.5 -130t-164 -90t-194.5 -34.5q-160 0 -256.5 77t-98.5 173q0 64 50 114q64 64 170 144q-101 32 -152 112q-27 46 -23 86q58 22 106 56.5t75 68.5q-76 32 -128.5 104.5t-52.5 170.5q0 83 34.5 150.5t90 107.5t118 61t124.5 21q104 0 197 -52
q132 5 278 29zM451 858q-71 0 -120.5 -65.5t-49.5 -180.5q0 -121 53 -197.5t139 -76.5q72 2 121 65t49 179q0 123 -52.5 199.5t-139.5 76.5zM496 -23q-73 0 -113 -10t-68 -35q-94 -76 -94 -159t78.5 -139t192.5 -56q141 0 217.5 63.5t76.5 163.5q0 106 -94 146
q-66 26 -196 26z" />
    <glyph glyph-name="h" unicode="h" horiz-adv-x="1093" 
d="M1051 0h-433v53q91 9 113.5 34.5t22.5 123.5v340q0 252 -201 252q-122 0 -213 -105v-487q0 -99 20.5 -124t110.5 -34v-53h-434v53q51 4 75 9.5t41 23t21 44.5t4 81v977q0 38 -0.5 56t-6 37.5t-12 26.5t-24.5 15t-38.5 10.5t-57.5 5.5v47q130 19 301 72v-688
q62 63 139 106.5t154 43.5q131 0 206.5 -86.5t75.5 -264.5v-358q0 -43 3 -67.5t9.5 -43t24 -27t38.5 -13t61 -7.5v-53z" />
    <glyph glyph-name="i" unicode="i" horiz-adv-x="548" 
d="M276 1098q-40 0 -71 31.5t-31 72.5q0 45 31.5 76t73.5 31q43 0 72.5 -30.5t29.5 -76.5q0 -42 -30.5 -73t-74.5 -31zM516 0h-450v53q36 3 56 6.5t38 11t26 16.5t14 28.5t7.5 41.5t1.5 60v422q0 96 -18.5 118.5t-110.5 37.5v49q154 24 291 80v-707q0 -104 23 -129.5
t122 -34.5v-53z" />
    <glyph glyph-name="j" unicode="j" horiz-adv-x="524" 
d="M276 1098q-41 0 -71.5 31.5t-30.5 72.5q0 45 31 76t74 31q42 0 71 -31t29 -76q0 -42 -30.5 -73t-72.5 -31zM70 797v47q167 25 299 80v-695q0 -108 -9.5 -180.5t-37.5 -150.5q-46 -135 -121.5 -246.5t-126.5 -155.5q-25 -22 -51 -22q-24 0 -49 27.5t-25 62.5q0 39 43 47
q109 27 147 78q37 46 51 147q19 139 19 395v400q0 38 -1 59.5t-7 41t-13.5 28t-25.5 17t-37 12t-55 8.5z" />
    <glyph glyph-name="k" unicode="k" horiz-adv-x="1015" 
d="M1051 0l-281 -4q-42 47 -96.5 112t-130.5 159t-109 134q-35 45 -63 45q-12 0 -33 -6v-227q0 -100 24.5 -125.5t124.5 -34.5v-53h-458v53q44 4 68.5 9.5t42.5 14t25 27.5t10 42.5t3 66.5v969q0 55 -2.5 80.5t-18.5 43.5t-39 23t-75 10v47q117 12 295 72v-964q76 15 129 71
q60 60 145 180q32 47 21 65.5t-82 25.5v53l418 18v-51q-106 -19 -155 -41.5t-109 -79.5q-70 -70 -177 -194q30 -44 146.5 -181.5t171.5 -193.5q56 -59 101.5 -84.5t103.5 -28.5v-53z" />
    <glyph glyph-name="l" unicode="l" horiz-adv-x="518" 
d="M487 0h-456v53q53 5 78 10.5t43 23.5t22 45t4 81v969q0 38 -1 59.5t-7.5 40t-13 26.5t-26 15t-38 9t-55.5 5v49q148 17 303 72v-1245q0 -71 10.5 -100.5t38.5 -41.5t98 -18v-53z" />
    <glyph glyph-name="m" unicode="m" horiz-adv-x="1677" 
d="M1630 0h-436v53q35 3 53 6t37 10t27 17t15.5 28.5t9 42.5t1.5 62v342q0 238 -180 238q-103 0 -229 -107q6 -37 6 -86v-399q0 -95 22 -120t109 -34v-53h-438v53q43 4 64.5 8.5t40.5 13t26 26.5t10.5 42.5t3.5 67.5v352q0 236 -178 236q-95 0 -223 -107v-481
q0 -98 19.5 -123.5t96.5 -34.5v-53h-432v53q37 3 58.5 6.5t41 10.5t28.5 16.5t16 27.5t8.5 40t1.5 57v424q0 99 -18 123t-107 37v47q165 29 285 84v-166q14 9 64 45.5t85 58.5q90 56 168 56q74 0 135.5 -44.5t91.5 -123.5q69 53 170 114q80 54 154 54q121 0 190.5 -82.5
t69.5 -231.5v-395q0 -54 3.5 -81t20 -44.5t38.5 -22.5t71 -10v-53z" />
    <glyph glyph-name="n" unicode="n" horiz-adv-x="1120" 
d="M1071 0h-426v53q91 9 113 36.5t22 133.5v342q0 234 -186 234q-102 0 -223 -105v-481q0 -38 1 -59.5t7 -40.5t13 -27.5t24.5 -16t35.5 -10.5t52 -6v-53h-445v53q39 4 60 7t40.5 11t27 16.5t14 27.5t7.5 40t1 58v424q0 53 -2.5 77.5t-18 42.5t-35.5 23.5t-67 14.5v47
q169 31 285 84v-164q28 21 137 96q96 62 170 62q123 0 193.5 -82t70.5 -230v-395q0 -57 2.5 -83t18 -44t37 -23t71.5 -10v-53z" />
    <glyph glyph-name="o" unicode="o" horiz-adv-x="1044" 
d="M524 920q189 0 317 -132.5t128 -324.5q0 -96 -27 -177.5t-71.5 -137.5t-102.5 -96t-120 -58.5t-124 -18.5q-102 0 -188 38.5t-142 102.5t-87 145t-31 167q0 121 43.5 218.5t111.5 155t144 88t149 30.5zM504 852q-100 0 -169 -96t-69 -262q0 -196 78 -323.5t203 -127.5
q104 0 167.5 88.5t63.5 286.5q0 122 -30.5 219t-94 156t-149.5 59z" />
    <glyph glyph-name="p" unicode="p" horiz-adv-x="1073" 
d="M346 778l189 111q57 31 100 31q83 0 152 -32t114.5 -86t70.5 -124t25 -146q0 -112 -42 -209.5t-113.5 -167t-162 -115.5t-192.5 -65q-75 3 -141 37v-268q0 -43 1.5 -67t9 -45.5t16 -31t31.5 -18t47 -11.5t69 -7v-56h-485v56q100 9 124.5 34.5t24.5 125.5v925
q0 28 -0.5 44.5t-3 33.5t-5 25.5t-11.5 17.5t-16.5 12.5t-24.5 8t-31.5 6.5t-42.5 6v49q134 22 297 88v-162zM346 711v-555q34 -35 87.5 -57.5t105.5 -22.5q129 0 207.5 103t78.5 276q0 159 -78.5 250.5t-195.5 91.5q-46 0 -102 -25.5t-103 -60.5z" />
    <glyph glyph-name="q" unicode="q" horiz-adv-x="1046" 
d="M1055 -496h-492v56q45 4 69 7t46.5 11.5t32 17.5t16.5 29t8.5 42.5t1.5 62.5v331l-217 -86q-107 0 -194 39t-139 102.5t-79.5 138t-27.5 151.5q0 142 78 262t203.5 186.5t265.5 65.5q95 -8 143 -27q34 -10 55 -10t70 22l8 -6q-6 -129 -6 -219v-952q0 -39 1 -62t8.5 -42.5
t15.5 -28t29.5 -16.5t42 -11t61.5 -8v-56zM737 123v629q-34 39 -91.5 62.5t-108.5 23.5q-112 0 -193.5 -96.5t-81.5 -268.5q0 -89 29 -163.5t76 -121.5t104 -72.5t115 -25.5q76 0 151 33z" />
    <glyph glyph-name="r" unicode="r" horiz-adv-x="759" 
d="M371 702h4q130 218 248 218q50 0 84 -32t34 -71q0 -31 -18 -59t-47 -41q-36 -15 -55 4q-40 43 -86 43q-41 0 -86 -46.5t-78 -129.5v-375q0 -38 1 -58.5t7.5 -40t15.5 -28t30.5 -16.5t46 -11t67.5 -6v-53h-471v53q96 9 118.5 34t22.5 126v424q0 44 -2.5 67.5t-8 42
t-22 26.5t-36 13.5t-58.5 10.5v45q154 25 289 84v-224z" />
    <glyph glyph-name="s" unicode="s" horiz-adv-x="751" 
d="M655 666l-53 -13q-30 94 -84 148.5t-127 54.5q-58 0 -95.5 -40.5t-37.5 -100.5q0 -63 45.5 -103t128.5 -75q127 -52 192.5 -116t65.5 -163q0 -89 -51 -155t-126.5 -97t-160.5 -31q-72 0 -137.5 22t-97.5 48q-11 22 -22 104.5t-11 137.5l53 10q30 -108 97 -181t155 -73
q59 0 102.5 40t43.5 103q0 64 -40 106.5t-122 80.5q-46 21 -75 36t-67.5 42t-60 53.5t-37.5 65.5t-16 85q0 110 86.5 187.5t224.5 77.5q88 0 182 -35q11 -33 25.5 -105t19.5 -114z" />
    <glyph glyph-name="t" unicode="t" horiz-adv-x="624" 
d="M610 74l-139 -72q-53 -27 -86 -27q-98 0 -149.5 61.5t-51.5 182.5v596h-141l-8 21l55 59h94v149l133 136l29 -4v-281h232q14 -15 9.5 -42.5t-22.5 -37.5h-219v-526q0 -59 11 -100.5t30 -61t37.5 -27.5t40.5 -8q55 0 127 35z" />
    <glyph glyph-name="u" unicode="u" horiz-adv-x="1087" 
d="M1061 100v-51q-113 -17 -301 -74l-12 13v145q-97 -72 -152 -106q-88 -52 -158 -52q-112 0 -183 75t-71 231v401q0 84 -18.5 105t-106.5 38v47q139 9 293 37q-6 -63 -6 -299v-274q0 -126 50.5 -179t129.5 -53q120 0 222 99v477q0 32 -1 50t-8 35t-15 24.5t-29.5 15t-43 11
t-63.5 9.5v47q199 11 321 37v-684q0 -75 17.5 -96.5t77.5 -24.5z" />
    <glyph glyph-name="v" unicode="v" horiz-adv-x="948" 
d="M977 895v-51q-79 -10 -108.5 -36.5t-71.5 -119.5q-159 -360 -289 -711h-55q-79 211 -283 717q-35 90 -63 114t-111 36v51h420v-51q-81 -10 -95 -31.5t13 -87.5q110 -296 194 -506q86 202 183 490q24 73 6 99t-105 36v51h365z" />
    <glyph glyph-name="w" unicode="w" horiz-adv-x="1402" 
d="M1425 895v-51q-74 -12 -102 -39t-61 -115q-55 -146 -246 -713h-58q-36 98 -77.5 204t-92.5 233t-79 200q-25 -66 -75 -193.5t-90.5 -235t-76.5 -208.5h-59q-111 365 -236 732q-28 79 -54 101.5t-100 33.5v51h424v-51q-92 -15 -108.5 -35.5t6.5 -89.5q58 -196 149 -477h5
q48 126 237 643h53q88 -247 246 -649h4q107 335 140 471q20 80 0.5 101.5t-119.5 35.5v51h370z" />
    <glyph glyph-name="x" unicode="x" horiz-adv-x="966" 
d="M973 0h-441v53q67 8 81.5 24.5t-11.5 57.5l-151 240q-87 -131 -132 -217q-31 -52 -18.5 -72.5t90.5 -32.5v-53h-383v53q66 8 100.5 21t61 36t70.5 78q75 95 172 246l-179 279q-46 75 -80.5 97.5t-119.5 33.5v51h409v-51q-65 -9 -75.5 -27t18.5 -61l121 -189
q69 100 119 191q26 50 14 64t-80 22v51h373v-51q-95 -11 -132.5 -29t-92.5 -82q-45 -56 -160 -225l201 -303q58 -89 95 -114.5t130 -37.5v-53z" />
    <glyph glyph-name="y" unicode="y" horiz-adv-x="940" 
d="M979 895v-51q-81 -12 -110.5 -36.5t-71.5 -113.5q-22 -48 -53 -122.5t-89.5 -218.5t-113.5 -275q-105 -251 -147.5 -362t-63.5 -193q-13 -49 -66 -49q-43 0 -80 30.5t-37 67.5q0 23 12.5 39t41.5 35q47 30 81 72t70 110q49 91 64 141q14 44 -2 92q-142 404 -236 627
q-33 88 -63.5 116t-112.5 40v51h416v-51q-70 -12 -84.5 -34t6.5 -79l186 -514q102 248 189 510q19 60 -1 82.5t-106 34.5v51h371z" />
    <glyph glyph-name="z" unicode="z" horiz-adv-x="860" 
d="M793 283l53 -25q-17 -43 -48.5 -132t-45.5 -126h-676l-13 31q233 344 510 796h-182q-45 0 -75.5 -5t-52.5 -13.5t-40 -28t-31 -40.5t-32 -60l-29 -55l-51 18q42 142 70 297h43q9 -25 32.5 -35t79.5 -10h471l12 -29q-222 -346 -499 -798h203q59 0 97.5 7.5t69.5 29.5
t52.5 49t54.5 79z" />
    <glyph glyph-name="braceleft" unicode="{" horiz-adv-x="710" 
d="M600 -289v-57q-43 0 -78.5 4.5t-78.5 20.5t-71.5 43t-48.5 77.5t-20 118.5q0 74 7 219t7 207q0 28 -2 46.5t-12 44t-28.5 41.5t-54.5 29.5t-87 16.5v62q51 3 87 16.5t54.5 29.5t28.5 41.5t12 44t2 46.5q0 68 -7 211.5t-7 208.5q0 69 20 120.5t48.5 79.5t71.5 44.5
t78.5 21t78.5 4.5v-57q-55 -7 -91 -24.5t-53 -45.5t-22.5 -55.5t-5.5 -67.5q0 -65 13.5 -202t13.5 -205q0 -91 -41 -154t-129 -84v-8q86 -19 128 -83.5t42 -154.5q0 -71 -13.5 -204.5t-13.5 -196.5q0 -40 5.5 -68t22.5 -57t52.5 -47.5t91.5 -26.5z" />
    <glyph glyph-name="bar" unicode="|" horiz-adv-x="538" 
d="M334 -512h-131v2048h131v-2048z" />
    <glyph glyph-name="braceright" unicode="}" horiz-adv-x="710" 
d="M580 582v-60q-52 -3 -88.5 -17t-55.5 -30.5t-29 -43t-12 -45.5t-2 -48q0 -59 8.5 -201.5t8.5 -220.5q0 -65 -20 -114t-49.5 -76.5t-71.5 -44.5t-79 -22t-79 -5v57q102 16 138 65t36 128q0 64 -14.5 201.5t-14.5 203.5q0 197 172 240v8q-88 21 -130 85t-42 153
q0 67 14.5 205.5t14.5 203.5q0 81 -36 129t-138 62v57q45 0 80.5 -4.5t78.5 -20.5t72 -43t48.5 -77.5t19.5 -118.5q0 -76 -8.5 -218t-8.5 -200q0 -30 2 -49.5t12 -46.5t29 -44t55.5 -31t88.5 -17z" />
    <glyph glyph-name="asciitilde" unicode="~" horiz-adv-x="1187" 
d="M1001 631l74 -43q-33 -109 -99 -167.5t-161 -58.5q-64 0 -125 24.5t-135 68.5q-57 35 -98 51t-86 16q-64 0 -108.5 -42.5t-78.5 -133.5l-71 53q88 226 266 226q58 0 109 -18.5t130 -61.5q70 -41 117 -60.5t92 -19.5q62 0 102.5 39.5t71.5 126.5z" />
    <glyph glyph-name="uni00A0" unicode="&#xa0;" horiz-adv-x="464" 
 />
    <glyph glyph-name="exclamdown" unicode="&#xa1;" horiz-adv-x="565" 
d="M281 915q51 0 83.5 -33t32.5 -87q0 -52 -32.5 -85.5t-83.5 -33.5t-84 33.5t-33 85.5q0 54 33 87t84 33zM283 -469q-58 0 -84.5 14t-26.5 47q0 16 14 160q28 246 62 735q8 11 36.5 11.5t34.5 -11.5q6 -82 16.5 -238.5t20 -274t21.5 -222.5q16 -131 16 -160
q0 -33 -26.5 -47t-83.5 -14z" />
    <glyph glyph-name="cent" unicode="&#xa2;" horiz-adv-x="983" 
d="M854 449l35 -48q-61 -81 -145 -134.5t-160 -65.5v-201h-72v197q-89 2 -166.5 37.5t-129.5 92.5t-82 130.5t-30 152.5q0 114 52 211.5t139 165.5q100 72 217 100v173h72v-164q14 2 34 2q131 0 209 -54q29 -20 29 -51q0 -30 -24.5 -59t-49.5 -29q-11 0 -30 19
q-75 75 -168 86v-682q79 -1 142 28t128 93zM512 336v676q-42 -1 -84 -19.5t-79.5 -55t-61 -100t-23.5 -143.5q0 -68 16 -126t41 -96.5t58.5 -67.5t66 -45t66.5 -23z" />
    <glyph glyph-name="sterling" unicode="&#xa3;" horiz-adv-x="983" 
d="M768 604h-348q2 -2 1 -24l-1 -23q0 -189 -176 -354q84 0 213 -56q166 -77 245 -77q56 0 87.5 25.5t31.5 68.5q0 28 -14 65q-12 20 4 45q35 54 74 54q21 0 35 -26.5t14 -57.5q0 -65 -48 -130.5t-112 -105.5q-90 -63 -184 -63q-55 0 -120.5 28.5t-154.5 79.5
q-85 49 -120 49q-49 0 -84 -88q-9 -24 -25 -24q-25 0 -36.5 27t11.5 71q8 15 22.5 33t41 47.5t33.5 38.5q86 93 86 276q0 28 -6 121h-181v78h170q-10 128 -10 168q0 221 170 358q46 38 108 65t105 27q63 0 120.5 -27.5t78.5 -55.5q20 -32 6 -64q-11 -26 -39 -47
q-27 -21 -55 4q-32 27 -54.5 42.5t-60.5 29.5t-78 14q-145 0 -145 -197q0 -77 39 -317h356v-78z" />
    <glyph glyph-name="currency" unicode="&#xa4;" horiz-adv-x="983" 
d="M918 276l-84 -81l-132 153q-46 -38 -104 -59t-111 -21q-55 0 -114.5 20t-104.5 58l-129 -151l-82 81l142 136q-88 107 -88 254q0 145 90 249l-144 140l82 80l131 -154q96 80 219 80q52 0 110.5 -20t105.5 -58l129 152l84 -80l-142 -140q41 -47 64.5 -113.5t23.5 -135.5
q0 -145 -90 -252zM489 961q-110 0 -181.5 -82t-71.5 -213q0 -132 72 -214.5t181 -82.5t180.5 82.5t71.5 214.5q0 130 -72.5 212.5t-179.5 82.5z" />
    <glyph glyph-name="yen" unicode="&#xa5;" horiz-adv-x="983" 
d="M954 1276v-53q-79 -10 -110.5 -35.5t-77.5 -110.5q-73 -130 -201 -399h238v-74h-252v-143h252v-76h-252v-166q0 -57 3.5 -83t23 -46t51.5 -25.5t98 -9.5v-55h-512v55q45 3 71 6t47.5 11t31 16.5t16 29.5t7.5 41.5t1 59.5v166h-244v76h244v143h-244v74h224q-23 55 -50 114
t-68 145.5t-67 141.5q-42 89 -70 112t-100 32v53h416v-53l-53 -11q-42 -8 -52 -20.5t3 -44.5q17 -45 49 -119t73.5 -167t61.5 -140q131 270 180 399q20 42 11.5 62t-56.5 30l-57 11v53h364z" />
    <glyph glyph-name="brokenbar" unicode="&#xa6;" horiz-adv-x="538" 
d="M334 666h-131v716h131v-716zM334 -358h-131v716h131v-716z" />
    <glyph glyph-name="section" unicode="&#xa7;" horiz-adv-x="976" 
d="M872 414q-3 -220 -200 -439q-72 -75 -138.5 -119.5t-146.5 -68.5q-28 0 -70.5 12t-70.5 33q-39 33 -39 62q0 34 41 65q23 14 45 8q79 -59 160 -59q56 0 99 32.5t44 92.5q2 43 -29 92t-108 121q-117 113 -201 200q-147 140 -147 312q3 180 161 352q81 88 149 134.5
t161 68.5q37 0 75.5 -14t59.5 -33q24 -21 24 -47q0 -21 -11.5 -40t-24.5 -28q-22 -16 -41 -2q-21 19 -63 37t-91 18q-63 0 -97 -34t-34 -74q0 -74 76 -140q38 -34 121.5 -106t103.5 -90q192 -162 192 -346zM213 846q0 -85 42 -162.5t140 -169.5q204 -185 250 -260
q18 -29 30 -75.5t9 -84.5l4 -2q78 116 78 234q0 157 -164 303q-175 157 -227 209q-40 40 -63 93.5t-17 108.5h-8q-71 -93 -74 -194z" />
    <glyph glyph-name="dieresis" unicode="&#xa8;" 
d="M238 1102q-40 0 -69.5 30t-29.5 68q0 43 30 73t71 30q40 0 67 -30t27 -73q0 -39 -28 -68.5t-68 -29.5zM582 1102q-39 0 -68 29.5t-29 68.5q0 43 29 73t70 30q40 0 68 -30t28 -73q0 -39 -28.5 -68.5t-69.5 -29.5z" />
    <glyph glyph-name="copyright" unicode="&#xa9;" horiz-adv-x="1437" 
d="M719 1282q172 0 312.5 -83t220 -226t79.5 -314q0 -170 -79 -312t-219.5 -225t-313.5 -83t-314.5 83t-221 225t-79.5 312q0 128 47 243t128 198.5t195.5 132.5t244.5 49zM719 1210q-147 0 -266 -71.5t-185.5 -196.5t-66.5 -280q0 -236 147.5 -393.5t370.5 -157.5
q148 0 267 72.5t185 198.5t66 280q0 155 -66 280t-185 196.5t-267 71.5zM985 539l45 -11q-35 -142 -53 -184q-114 -39 -213 -39q-95 0 -171.5 30t-122.5 80.5t-70.5 111.5t-24.5 126q0 111 55.5 195t145 126t196.5 42q120 0 213 -35q16 -109 23 -186l-45 -9
q-49 172 -205 172q-108 0 -171 -80.5t-63 -209.5q0 -133 68.5 -218t171.5 -85q81 0 133 44t88 130z" />
    <glyph glyph-name="ordfeminine" unicode="&#xaa;" horiz-adv-x="624" 
d="M604 618l-129 -67q-69 5 -92 80q-41 -27 -59 -38.5t-49.5 -26.5t-49.5 -15q-66 0 -111.5 48t-45.5 108q0 87 98 124q13 5 53.5 19.5t64 23.5t52.5 22.5t45 25.5v20q0 50 -27.5 81.5t-74.5 31.5q-66 0 -97 -109q-11 -31 -43 -31q-23 0 -44 18t-21 40q0 32 43 57
q32 24 89 51t109 35q88 0 135.5 -45.5t47.5 -134.5v-221q0 -70 43 -70q22 0 49 12zM381 680v186q-35 -18 -127 -55q-33 -18 -46 -35.5t-13 -46.5q0 -41 27 -65.5t63 -24.5q50 0 96 41z" />
    <glyph glyph-name="guillemotleft" unicode="&#xab;" horiz-adv-x="909" 
d="M471 111l-45 -33q-220 279 -326 375q142 142 326 376l45 -30l-190 -346zM811 111l-47 -33q-217 276 -324 375q148 153 324 376l47 -30l-190 -346z" />
    <glyph glyph-name="logicalnot" unicode="&#xac;" horiz-adv-x="1187" 
d="M1083 199h-118v454h-859v101h977v-555z" />
    <glyph glyph-name="uni00AD" unicode="&#xad;" horiz-adv-x="729" 
d="M614 518l-30 -112h-467l28 112h469z" />
    <glyph glyph-name="registered" unicode="&#xae;" horiz-adv-x="657" 
d="M330 1350q113 0 189.5 -78t76.5 -187q0 -106 -77 -185t-189 -79q-114 0 -189 75.5t-75 188.5q0 109 76.5 187t187.5 78zM330 1303q-90 0 -147.5 -63t-57.5 -155t58.5 -153.5t146.5 -61.5q89 0 148 61.5t59 153.5t-59 155t-148 63zM481 969l-8 -25q-65 0 -98 43
q-8 11 -15 24t-13.5 25.5t-8.5 16.5q-9 14 -29 14h-8v-49q0 -27 6 -32t33 -7v-33h-137v33q27 2 33 7t6 32v139q0 27 -5.5 32t-31.5 7v31h139q98 0 98 -72q0 -50 -55 -70q23 -46 68 -96q14 -14 26 -20zM301 1098h18q24 0 35 8q23 12 23 43q0 26 -16 36.5t-33 10.5
q-27 0 -27 -25v-73z" />
    <glyph glyph-name="macron" unicode="&#xaf;" 
d="M635 1122h-449v113h449v-113z" />
    <glyph glyph-name="degree" unicode="&#xb0;" horiz-adv-x="702" 
d="M352 1360q117 0 202 -79.5t85 -203.5q0 -127 -84.5 -203.5t-202.5 -76.5q-119 0 -202.5 76.5t-83.5 203.5q0 124 84 203.5t202 79.5zM352 1270q-72 0 -118 -52.5t-46 -138.5t46 -139t118 -53q73 0 118.5 52.5t45.5 137.5q0 86 -45.5 139.5t-118.5 53.5z" />
    <glyph glyph-name="plusminus" unicode="&#xb1;" horiz-adv-x="1187" 
d="M1083 637h-428v-418h-118v418h-431v100h431v391h118v-391h428v-100zM1083 0h-977v102h977v-102z" />
    <glyph glyph-name="twosuperior" unicode="&#xb2;" horiz-adv-x="698" 
d="M582 1020l45 -16q-27 -89 -47 -181h-498v45q144 115 204 177q146 147 146 260q0 73 -38.5 111t-98.5 38q-90 0 -174 -113l-35 37l66 88q35 44 87 68.5t111 24.5q92 0 158.5 -59.5t66.5 -160.5q0 -71 -48.5 -138.5t-168.5 -172.5l-106 -94v-6h186q62 0 88 16t56 76z" />
    <glyph glyph-name="threesuperior" unicode="&#xb3;" horiz-adv-x="698" 
d="M422 1257v-4q82 -14 130 -59t48 -111t-41 -121.5t-99.5 -87.5t-113 -49.5t-90.5 -17.5q-79 0 -139 43q-33 26 -23 59q9 26 37 47q20 16 41 -2q85 -67 156 -67q60 0 96.5 37.5t36.5 115.5q0 67 -46.5 102.5t-111.5 35.5q-37 0 -84 -15l-14 51q101 32 153 69t52 91
q0 40 -29 67t-80 27q-43 0 -85 -31.5t-69 -72.5l-32 35l59 84q28 30 77.5 51.5t100.5 21.5q87 0 141 -44.5t54 -110.5q0 -56 -39 -84q-38 -34 -86 -60z" />
    <glyph glyph-name="acute" unicode="&#xb4;" 
d="M395 1010l-53 26q56 123 137 326q16 7 82 14.5t84 3.5l6 -18z" />
    <glyph glyph-name="mu" unicode="&#xb5;" horiz-adv-x="1048" 
d="M1020 111l20 -54q-27 -33 -75.5 -57.5t-98.5 -24.5q-64 0 -107 44.5t-52 115.5h-5q-139 -160 -272 -160q-53 0 -97.5 24t-70.5 62h-8v-32q-1 -116 25 -290.5t51 -240.5l-27 -24q-33 3 -81 28.5t-72 51.5q-3 9 -4.5 45t-1.5 96v117t0.5 139.5t0.5 132.5v602q0 126 -6 197
l166 39q4 -49 4 -217v-351q0 -70 17.5 -121.5t46 -78.5t60 -39.5t65.5 -12.5q59 0 114 33.5t88 75.5v674l164 37v-689q0 -143 84 -143q34 0 72 21z" />
    <glyph glyph-name="paragraph" unicode="&#xb6;" horiz-adv-x="1017" 
d="M954 1092l-61 -56l-180 -20v-971q0 -125 -33 -214t-105 -165q-41 -42 -99.5 -72t-78.5 -30q-88 0 -135 47q-33 29 -20 61q8 28 41 56q18 15 39 0q67 -45 129 -45q32 0 58 13t49.5 46t36.5 99.5t13 162.5v307l-137 -59q-12 -6 -35 -6q-35 0 -78.5 17.5t-88.5 54
t-82.5 84.5t-61 115.5t-23.5 141.5q0 98 37.5 184t98.5 144q63 59 147 94t156 35h405z" />
    <glyph glyph-name="periodcentered" unicode="&#xb7;" horiz-adv-x="462" 
d="M231 356q-50 0 -82 33t-32 88q0 50 32.5 83.5t81.5 33.5q51 0 84 -33.5t33 -83.5q0 -55 -32.5 -88t-84.5 -33z" />
    <glyph glyph-name="cedilla" unicode="&#xb8;" 
d="M504 0l-45 -55q-20 -27 -17.5 -43t27.5 -41q80 -80 80 -142q0 -64 -63 -118.5t-171 -87.5l-24 53q123 53 123 123q0 33 -47 80q-40 37 -45.5 62t22.5 65l78 104h82z" />
    <glyph glyph-name="onesuperior" unicode="&#xb9;" horiz-adv-x="698" 
d="M559 823h-401v47q86 6 110.5 27t24.5 94v365q0 58 -12.5 72.5t-65.5 17.5l-59 4v45q143 19 270 61v-565q0 -73 23.5 -92.5t109.5 -28.5v-47z" />
    <glyph glyph-name="ordmasculine" unicode="&#xba;" horiz-adv-x="684" 
d="M342 1116q123 0 204 -80t81 -194q-1 -89 -45 -157.5t-107 -101t-131 -32.5q-131 0 -211 83t-78 191q0 71 28 129t71.5 92t92 52t95.5 18zM328 1061q-51 0 -90.5 -54t-40.5 -149q0 -111 44.5 -180.5t110.5 -69.5q59 0 95.5 49.5t37.5 153.5q0 110 -42.5 180t-114.5 70z
" />
    <glyph glyph-name="guillemotright" unicode="&#xbb;" horiz-adv-x="911" 
d="M100 799l47 30q178 -224 324 -374q-153 -158 -324 -375l-47 29l193 346zM440 799l45 30q195 -245 324 -374q-136 -136 -324 -375l-45 29l191 346z" />
    <glyph glyph-name="onequarter" unicode="&#xbc;" horiz-adv-x="1560" 
d="M565 567h-401v47q86 6 110.5 27t24.5 94v365q0 58 -12.5 72.5t-65.5 17.5l-59 4v47q124 14 270 62v-568q0 -73 23.5 -92.5t109.5 -28.5v-47zM1235 1294l-832 -1349l-63 49l827 1347zM1407 203h-121v-60q0 -59 20.5 -75t92.5 -21v-47h-371v47q87 6 110 21.5t23 74.5v60
h-332v47q221 295 377 485h80v-456h121v-76zM1161 279v305h-6q-105 -136 -221 -305h227z" />
    <glyph glyph-name="onehalf" unicode="&#xbd;" horiz-adv-x="1560" 
d="M551 567h-404v47q87 6 111.5 27t24.5 94v365q0 58 -12 72.5t-64 17.5l-62 4v47q127 14 273 62v-568q0 -73 23.5 -92.5t109.5 -28.5v-47zM1206 1294l-831 -1349l-64 49l828 1347zM1397 197l45 -15q-36 -122 -49 -182h-498v45q138 111 189 160q163 157 163 276
q0 73 -38.5 111.5t-98.5 38.5q-90 0 -174 -113l-37 37l68 88q73 92 198 92q92 0 158 -59t66 -160q0 -71 -47.5 -137.5t-167.5 -171.5l-107 -96v-5h186q60 0 87 16t57 75z" />
    <glyph glyph-name="threequarters" unicode="&#xbe;" horiz-adv-x="1560" 
d="M1241 1294l-831 -1349l-64 49l828 1347zM1395 203h-121v-60q0 -60 20 -75.5t92 -20.5v-47h-370v47q87 6 110 21.5t23 74.5v60h-332v47q221 295 377 485h80v-456h121v-76zM1149 279v305h-6q-105 -136 -221 -305h227zM477 1001v-4q82 -14 130 -59t48 -111t-41 -121.5
t-99.5 -87.5t-113 -49.5t-90.5 -17.5q-79 0 -139 43q-32 25 -22 59q9 27 36 47q20 16 41 -2q92 -67 156 -67q60 0 96.5 37.5t36.5 115.5q0 67 -46.5 102.5t-111.5 35.5q-37 0 -84 -15l-14 51q101 32 153 69t52 91q0 40 -29 67t-80 27q-43 0 -84 -31t-69 -71l-33 33l59 84
q29 30 78.5 53t100.5 23q87 0 140.5 -46t53.5 -112q0 -56 -39 -84q-38 -34 -86 -60z" />
    <glyph glyph-name="questiondown" unicode="&#xbf;" horiz-adv-x="776" 
d="M391 915q47 0 79 -32t32 -82t-32.5 -83.5t-78.5 -33.5q-49 0 -80.5 33t-31.5 84t31 82.5t81 31.5zM326 451l36 47q73 -27 150.5 -105t77.5 -162q0 -53 -38.5 -104.5t-133.5 -124.5q-5 -4 -26.5 -19.5t-30 -22.5t-28.5 -23t-30.5 -25.5t-26.5 -25t-24.5 -28t-17.5 -27.5
t-13 -29.5t-4 -28.5q0 -52 32 -80.5t89 -28.5q44 0 87 17t69 37.5t48 37.5t29 17q25 0 54.5 -27.5t29.5 -62.5q0 -34 -43 -74q-43 -37 -99.5 -57.5t-90.5 -20.5q-127 0 -227.5 100t-100.5 226q0 54 23 96.5t76 85.5q13 11 48 37t62 47.5t56.5 50t46 58t16.5 57.5
q0 48 -22.5 83t-73.5 79z" />
    <glyph glyph-name="Agrave" unicode="&#xc0;" horiz-adv-x="1415" 
d="M1378 0h-501v57q97 12 118.5 32.5t1.5 80.5q-21 62 -112 315h-436q-65 -181 -91 -264q-12 -34 -17.5 -56t-3.5 -40.5t10 -29t27 -18.5t44.5 -12t66.5 -8v-57h-444v57q55 8 81 15t54 30t47 59.5t47 106.5l424 1075l64 19q28 -78 173 -483.5t222 -614.5q26 -70 43.5 -105.5
t44 -59t55 -30.5t82.5 -12v-57zM856 573l-180 523h-4q-98 -260 -193 -523h377zM834 1452l-29 -51l-381 131l-4 14q7 24 39 67.5t51 49.5q229 -147 324 -211z" />
    <glyph glyph-name="Aacute" unicode="&#xc1;" horiz-adv-x="1415" 
d="M1378 0h-501v57q97 12 118.5 32.5t1.5 80.5q-21 62 -112 315h-436q-65 -181 -91 -264q-12 -34 -17.5 -56t-3.5 -40.5t10 -29t27 -18.5t44.5 -12t66.5 -8v-57h-444v57q55 8 81 15t54 30t47 59.5t47 106.5l424 1075l64 19q28 -78 173 -483.5t222 -614.5q26 -70 43.5 -105.5
t44 -59t55 -30.5t82.5 -12v-57zM856 573l-180 523h-4q-98 -260 -193 -523h377zM1032 1548l-4 -16l-379 -131l-26 51q66 42 187.5 121.5t133.5 87.5q18 -3 50.5 -46.5t37.5 -66.5z" />
    <glyph glyph-name="Acircumflex" unicode="&#xc2;" horiz-adv-x="1415" 
d="M1378 0h-501v57q97 12 118.5 32.5t1.5 80.5q-21 62 -112 315h-436q-65 -181 -91 -264q-12 -34 -17.5 -56t-3.5 -40.5t10 -29t27 -18.5t44.5 -12t66.5 -8v-57h-444v57q55 8 81 15t54 30t47 59.5t47 106.5l424 1075l64 19q28 -78 173 -483.5t222 -614.5q26 -70 43.5 -105.5
t44 -59t55 -30.5t82.5 -12v-57zM856 573l-180 523h-4q-98 -260 -193 -523h377zM1010 1452l-33 -51q-103 44 -248 127q-162 -91 -246 -127l-32 51q188 145 258 219h45q76 -80 256 -219z" />
    <glyph glyph-name="Atilde" unicode="&#xc3;" horiz-adv-x="1415" 
d="M1378 0h-501v57q97 12 118.5 32.5t1.5 80.5q-21 62 -112 315h-436q-65 -181 -91 -264q-12 -34 -17.5 -56t-3.5 -40.5t10 -29t27 -18.5t44.5 -12t66.5 -8v-57h-444v57q55 8 81 15t54 30t47 59.5t47 106.5l424 1075l64 19q28 -78 173 -483.5t222 -614.5q26 -70 43.5 -105.5
t44 -59t55 -30.5t82.5 -12v-57zM856 573l-180 523h-4q-98 -260 -193 -523h377zM623 1614q45 0 127 -39q71 -33 112 -33q28 0 49.5 21.5t42.5 66.5l52 -28q-30 -94 -75 -134.5t-93 -40.5q-47 0 -144 46q-3 2 -11.5 6t-11.5 5.5t-10 4.5t-10.5 4t-10 3t-11.5 3t-11.5 1.5
t-13.5 0.5q-50 0 -96 -90l-49 35q34 89 77 128.5t87 39.5z" />
    <glyph glyph-name="Adieresis" unicode="&#xc4;" horiz-adv-x="1415" 
d="M1378 0h-501v57q97 12 118.5 32.5t1.5 80.5q-21 62 -112 315h-436q-65 -181 -91 -264q-12 -34 -17.5 -56t-3.5 -40.5t10 -29t27 -18.5t44.5 -12t66.5 -8v-57h-444v57q55 8 81 15t54 30t47 59.5t47 106.5l424 1075l64 19q28 -78 173 -483.5t222 -614.5q26 -70 43.5 -105.5
t44 -59t55 -30.5t82.5 -12v-57zM856 573l-180 523h-4q-98 -260 -193 -523h377zM918 1626q41 0 69.5 -29.5t28.5 -72.5q0 -40 -28.5 -69.5t-69.5 -29.5q-38 0 -67.5 29.5t-29.5 69.5q0 42 29 72t68 30zM528 1624q41 0 69 -28.5t28 -71.5q0 -40 -28 -69.5t-69 -29.5
q-40 0 -69 29.5t-29 69.5q0 42 29 71t69 29z" />
    <glyph glyph-name="Aring" unicode="&#xc5;" horiz-adv-x="1415" 
d="M1378 0h-501v57q97 12 118.5 32.5t1.5 80.5q-21 62 -112 315h-436q-65 -181 -91 -264q-12 -34 -17.5 -56t-3.5 -40.5t10 -29t27 -18.5t44.5 -12t66.5 -8v-57h-444v57q55 8 81 15t54 30t47 59.5t47 106.5l424 1075l64 19q28 -78 173 -483.5t222 -614.5q26 -70 43.5 -105.5
t44 -59t55 -30.5t82.5 -12v-57zM856 573l-180 523h-4q-98 -260 -193 -523h377zM725 1751q72 0 127 -47t55 -123q0 -78 -55 -127t-127 -49q-71 0 -125.5 49t-54.5 127q0 76 54 123t126 47zM725 1688q-39 0 -64.5 -30.5t-25.5 -76.5q0 -48 25.5 -80.5t64.5 -32.5q40 0 65 32.5
t25 80.5q0 47 -24.5 77t-65.5 30z" />
    <glyph glyph-name="AE" unicode="&#xc6;" horiz-adv-x="1779" 
d="M1677 338l58 -14q-41 -216 -72 -324h-969v57q71 5 105.5 12.5t56.5 33t26.5 61.5t4.5 110v334h-363q-134 -261 -194 -399q-39 -79 -19 -109t135 -45v-55h-469v55q101 14 143 43t101 131q173 307 490 922q35 63 24 84t-88 31l-84 10v55h1051q0 -91 20 -291l-61 -8
q-30 122 -66 168q-28 34 -71 47t-144 13h-170q-45 0 -55 -10.5t-10 -55.5v-508h184q49 0 79 1.5t54.5 9t37 16t23.5 29.5t16 41.5t13 60.5h62v-400h-62q-8 42 -13.5 63.5t-17 43t-23.5 30t-37 15.5t-54 8.5t-78 1.5l-184 2v-340q0 -79 10.5 -116t38.5 -56q28 -16 75 -20
t134 -4q112 0 170 14.5t92 54.5q50 59 100 197zM887 688v561q-26 0 -58 -41q-67 -123 -268 -520h326z" />
    <glyph glyph-name="Ccedilla" unicode="&#xc7;" horiz-adv-x="1353" 
d="M1255 365l60 -23q-60 -210 -111 -319q-8 -2 -56.5 -11.5t-86.5 -16.5t-95 -14t-102 -8l-22 -28q-19 -27 -16.5 -43t28.5 -43q42 -43 60 -74.5t18 -65.5q0 -61 -64 -117.5t-170 -90.5l-26 57q122 54 125 123q0 15 -8.5 31t-15 23t-23.5 24q-38 38 -43.5 63.5t20.5 63.5
l55 75q-139 4 -255.5 45.5t-195 107.5t-133 152.5t-79.5 178.5t-25 188q0 210 99 374t276 254.5t401 90.5q60 0 124.5 -7t100 -14t86 -19t54.5 -13q33 -241 41 -318l-62 -10q-47 166 -138.5 235.5t-262.5 69.5q-152 0 -268.5 -79t-178 -214.5t-61.5 -304.5q0 -184 63 -329
t183 -228.5t278 -83.5q105 0 183 37.5t132.5 103.5t110.5 177z" />
    <glyph glyph-name="Egrave" unicode="&#xc8;" horiz-adv-x="1163" 
d="M1057 332l61 -8q-35 -197 -71 -324h-988v57q76 6 111.5 12.5t59 29.5t28 55t4.5 100v815q0 50 -1.5 78.5t-9.5 53t-16.5 35t-32.5 19.5t-46.5 12t-69.5 7v57h913l17 -295l-60 -10q-22 104 -65 176q-22 32 -72.5 45t-159.5 13h-155q-47 0 -57.5 -10t-10.5 -56v-465h193
q49 0 78.5 1.5t54.5 8.5t36.5 15t22.5 29t16 40.5t13 59.5h59v-394h-59q-8 41 -13 63.5t-16.5 43t-23 29t-37 15.5t-53 8t-76.5 1h-195v-387q0 -72 10.5 -109t38.5 -57q27 -17 74 -21.5t139 -4.5q116 0 170 14.5t88 54.5q61 71 101 193zM715 1452l-27 -51l-383 131l-2 14
q5 23 37.5 67t50.5 50q229 -147 324 -211z" />
    <glyph glyph-name="Eacute" unicode="&#xc9;" horiz-adv-x="1163" 
d="M1057 332l61 -8q-35 -197 -71 -324h-988v57q76 6 111.5 12.5t59 29.5t28 55t4.5 100v815q0 50 -1.5 78.5t-9.5 53t-16.5 35t-32.5 19.5t-46.5 12t-69.5 7v57h913l17 -295l-60 -10q-22 104 -65 176q-22 32 -72.5 45t-159.5 13h-155q-47 0 -57.5 -10t-10.5 -56v-465h193
q49 0 78.5 1.5t54.5 8.5t36.5 15t22.5 29t16 40.5t13 59.5h59v-394h-59q-8 41 -13 63.5t-16.5 43t-23 29t-37 15.5t-53 8t-76.5 1h-195v-387q0 -72 10.5 -109t38.5 -57q27 -17 74 -21.5t139 -4.5q116 0 170 14.5t88 54.5q61 71 101 193zM883 1548l-4 -16l-379 -131l-27 51
q49 31 106 68t121.5 79t94.5 62q18 -3 50.5 -46.5t37.5 -66.5z" />
    <glyph glyph-name="Ecircumflex" unicode="&#xca;" horiz-adv-x="1163" 
d="M1057 332l61 -8q-35 -197 -71 -324h-988v57q76 6 111.5 12.5t59 29.5t28 55t4.5 100v815q0 50 -1.5 78.5t-9.5 53t-16.5 35t-32.5 19.5t-46.5 12t-69.5 7v57h913l17 -295l-60 -10q-22 104 -65 176q-22 32 -72.5 45t-159.5 13h-155q-47 0 -57.5 -10t-10.5 -56v-465h193
q49 0 78.5 1.5t54.5 8.5t36.5 15t22.5 29t16 40.5t13 59.5h59v-394h-59q-8 41 -13 63.5t-16.5 43t-23 29t-37 15.5t-53 8t-76.5 1h-195v-387q0 -72 10.5 -109t38.5 -57q27 -17 74 -21.5t139 -4.5q116 0 170 14.5t88 54.5q61 71 101 193zM868 1452l-32 -51q-116 50 -248 127
q-162 -91 -246 -127l-33 51q180 139 258 219h43q15 -15 31.5 -31t29.5 -28.5t33.5 -29.5t31 -26t34 -27.5t31.5 -24.5t35 -27t32 -25z" />
    <glyph glyph-name="Edieresis" unicode="&#xcb;" horiz-adv-x="1163" 
d="M1057 332l61 -8q-35 -197 -71 -324h-988v57q76 6 111.5 12.5t59 29.5t28 55t4.5 100v815q0 50 -1.5 78.5t-9.5 53t-16.5 35t-32.5 19.5t-46.5 12t-69.5 7v57h913l17 -295l-60 -10q-22 104 -65 176q-22 32 -72.5 45t-159.5 13h-155q-47 0 -57.5 -10t-10.5 -56v-465h193
q49 0 78.5 1.5t54.5 8.5t36.5 15t22.5 29t16 40.5t13 59.5h59v-394h-59q-8 41 -13 63.5t-16.5 43t-23 29t-37 15.5t-53 8t-76.5 1h-195v-387q0 -72 10.5 -109t38.5 -57q27 -17 74 -21.5t139 -4.5q116 0 170 14.5t88 54.5q61 71 101 193zM788 1632q42 0 70.5 -29t28.5 -71
q0 -40 -29 -70t-70 -30q-38 0 -67 30t-29 70q0 42 28.5 71t67.5 29zM399 1632q41 0 69 -29.5t28 -72.5q0 -40 -28 -69t-69 -29q-40 0 -69 29t-29 69q0 42 29 72t69 30z" />
    <glyph glyph-name="Igrave" unicode="&#xcc;" horiz-adv-x="698" 
d="M621 0h-543v57q47 3 72.5 6.5t49.5 12.5t33.5 19.5t17.5 34.5t9.5 51.5t1.5 74.5v819q0 47 -1.5 74.5t-9.5 51.5t-17.5 34.5t-33.5 19.5t-49.5 12.5t-72.5 6.5v57h543v-57q-47 -3 -72.5 -6.5t-49.5 -12.5t-34 -19.5t-18 -34.5t-9.5 -51.5t-1.5 -74.5v-819
q0 -48 1.5 -75.5t9.5 -51.5t18 -34.5t34 -19.5t49.5 -12t72.5 -6v-57zM483 1452l-26 -51l-383 131l-4 14q7 24 39 67.5t51 49.5q207 -133 323 -211z" />
    <glyph glyph-name="Iacute" unicode="&#xcd;" horiz-adv-x="698" 
d="M621 0h-543v57q47 3 72.5 6.5t49.5 12.5t33.5 19.5t17.5 34.5t9.5 51.5t1.5 74.5v819q0 47 -1.5 74.5t-9.5 51.5t-17.5 34.5t-33.5 19.5t-49.5 12.5t-72.5 6.5v57h543v-57q-47 -3 -72.5 -6.5t-49.5 -12.5t-34 -19.5t-18 -34.5t-9.5 -51.5t-1.5 -74.5v-819
q0 -48 1.5 -75.5t9.5 -51.5t18 -34.5t34 -19.5t49.5 -12t72.5 -6v-57zM639 1548l-4 -16l-379 -131l-25 51q49 32 160 104t162 105q17 -3 49 -46.5t37 -66.5z" />
    <glyph glyph-name="Icircumflex" unicode="&#xce;" horiz-adv-x="698" 
d="M621 0h-543v57q47 3 72.5 6.5t49.5 12.5t33.5 19.5t17.5 34.5t9.5 51.5t1.5 74.5v819q0 47 -1.5 74.5t-9.5 51.5t-17.5 34.5t-33.5 19.5t-49.5 12.5t-72.5 6.5v57h543v-57q-47 -3 -72.5 -6.5t-49.5 -12.5t-34 -19.5t-18 -34.5t-9.5 -51.5t-1.5 -74.5v-819
q0 -48 1.5 -75.5t9.5 -51.5t18 -34.5t34 -19.5t49.5 -12t72.5 -6v-57zM629 1452l-33 -51q-116 50 -248 127q-155 -87 -246 -127l-32 51q180 139 258 219h43q15 -15 31.5 -31t29.5 -28.5t33.5 -29.5t31 -26t34 -27.5t31.5 -24.5t35 -27t32 -25z" />
    <glyph glyph-name="Idieresis" unicode="&#xcf;" horiz-adv-x="698" 
d="M621 0h-543v57q47 3 72.5 6.5t49.5 12.5t33.5 19.5t17.5 34.5t9.5 51.5t1.5 74.5v819q0 47 -1.5 74.5t-9.5 51.5t-17.5 34.5t-33.5 19.5t-49.5 12.5t-72.5 6.5v57h543v-57q-47 -3 -72.5 -6.5t-49.5 -12.5t-34 -19.5t-18 -34.5t-9.5 -51.5t-1.5 -74.5v-819
q0 -48 1.5 -75.5t9.5 -51.5t18 -34.5t34 -19.5t49.5 -12t72.5 -6v-57zM545 1626q41 0 68.5 -28.5t27.5 -71.5q0 -40 -27.5 -69.5t-68.5 -29.5q-40 0 -69.5 29.5t-29.5 69.5q0 42 29.5 71t69.5 29zM154 1626q42 0 70 -29t28 -73q0 -39 -29 -69t-69 -30q-39 0 -68 30t-29 69
q0 44 28.5 73t68.5 29z" />
    <glyph glyph-name="Eth" unicode="&#xd0;" horiz-adv-x="1509" 
d="M111 1331h563q386 0 567 -176q80 -76 128 -188.5t48 -249.5q0 -357 -256 -547q-226 -170 -598 -170h-471v57q49 3 76 6.5t51.5 14t35 22.5t19 39t10 58t1.5 84v374h-209v84h209v312q0 53 -1.5 84t-9 58t-16.5 39t-32 22t-47 13.5t-68 6.5v57zM459 655v-385q0 -55 7 -88.5
t28 -59t60.5 -36t102.5 -10.5q112 0 204.5 32t156.5 88t108.5 133.5t65 167t20.5 189.5q0 168 -59 296t-176 200q-127 82 -332 82q-122 0 -160 -21q-26 -14 -26 -88v-416h323v-84h-323z" />
    <glyph glyph-name="Ntilde" unicode="&#xd1;" horiz-adv-x="1521" 
d="M1473 1331v-57q-89 -5 -128 -31t-45 -92q-12 -91 -12 -344v-825h-63l-873 1073h-4v-514q0 -228 12 -346q7 -76 48.5 -104t148.5 -34v-57h-485v57q92 5 132.5 32.5t47.5 100.5q12 126 12 351v450q0 110 -6 139.5t-35 67.5q-30 38 -69.5 54t-112.5 22v57h303l854 -1028h6
v504q0 207 -14 340q-7 68 -50.5 94.5t-150.5 32.5v57h484zM664 1614q45 0 127 -39q71 -33 112 -33q28 0 49.5 21t42.5 67l52 -28q-29 -95 -74 -135t-94 -40q-48 0 -142 46q-61 26 -90 26q-28 0 -50.5 -21.5t-47.5 -66.5l-49 35q34 88 77.5 128t86.5 40z" />
    <glyph glyph-name="Ograve" unicode="&#xd2;" horiz-adv-x="1529" 
d="M778 1362q130 0 250 -49.5t211.5 -136.5t146 -215.5t54.5 -278.5q0 -162 -54 -297.5t-147 -225.5t-217.5 -140t-265.5 -50q-137 0 -260 52t-212.5 141.5t-141.5 216.5t-52 272q0 111 30 215.5t89 194t140.5 157t192 106t236.5 38.5zM737 1288q-87 0 -165 -37.5
t-139.5 -108t-97.5 -182.5t-36 -251q0 -190 64.5 -342.5t178.5 -238t257 -85.5q87 0 163.5 37t137 107t96 183.5t35.5 256.5q0 158 -39.5 285t-107.5 208t-156.5 124.5t-190.5 43.5zM911 1470l-26 -53l-383 131l-4 17q7 24 39 67t51 49q43 -29 154 -100.5t169 -110.5z" />
    <glyph glyph-name="Oacute" unicode="&#xd3;" horiz-adv-x="1529" 
d="M778 1362q130 0 250 -49.5t211.5 -136.5t146 -215.5t54.5 -278.5q0 -162 -54 -297.5t-147 -225.5t-217.5 -140t-265.5 -50q-137 0 -260 52t-212.5 141.5t-141.5 216.5t-52 272q0 111 30 215.5t89 194t140.5 157t192 106t236.5 38.5zM737 1288q-87 0 -165 -37.5
t-139.5 -108t-97.5 -182.5t-36 -251q0 -190 64.5 -342.5t178.5 -238t257 -85.5q87 0 163.5 37t137 107t96 183.5t35.5 256.5q0 158 -39.5 285t-107.5 208t-156.5 124.5t-190.5 43.5zM1030 1563l-4 -17l-379 -131l-26 51q59 38 168 109.5t153 99.5q18 -3 50.5 -46t37.5 -66z
" />
    <glyph glyph-name="Ocircumflex" unicode="&#xd4;" horiz-adv-x="1529" 
d="M778 1362q130 0 250 -49.5t211.5 -136.5t146 -215.5t54.5 -278.5q0 -162 -54 -297.5t-147 -225.5t-217.5 -140t-265.5 -50q-137 0 -260 52t-212.5 141.5t-141.5 216.5t-52 272q0 111 30 215.5t89 194t140.5 157t192 106t236.5 38.5zM737 1288q-87 0 -165 -37.5
t-139.5 -108t-97.5 -182.5t-36 -251q0 -190 64.5 -342.5t178.5 -238t257 -85.5q87 0 163.5 37t137 107t96 183.5t35.5 256.5q0 158 -39.5 285t-107.5 208t-156.5 124.5t-190.5 43.5zM1042 1466l-32 -51q-105 49 -248 127q-185 -100 -246 -127l-33 51q184 142 258 222h45
q80 -86 256 -222z" />
    <glyph glyph-name="Otilde" unicode="&#xd5;" horiz-adv-x="1529" 
d="M778 1362q130 0 250 -49.5t211.5 -136.5t146 -215.5t54.5 -278.5q0 -162 -54 -297.5t-147 -225.5t-217.5 -140t-265.5 -50q-137 0 -260 52t-212.5 141.5t-141.5 216.5t-52 272q0 111 30 215.5t89 194t140.5 157t192 106t236.5 38.5zM737 1288q-87 0 -165 -37.5
t-139.5 -108t-97.5 -182.5t-36 -251q0 -190 64.5 -342.5t178.5 -238t257 -85.5q87 0 163.5 37t137 107t96 183.5t35.5 256.5q0 158 -39.5 285t-107.5 208t-156.5 124.5t-190.5 43.5zM659 1632q45 0 127 -39q69 -32 111 -32q30 0 51.5 21t42.5 67l51 -29q-30 -94 -75 -134
t-93 -40t-143 45q-7 3 -22 10t-23 10t-20.5 6t-24.5 3q-50 0 -96 -90l-51 34q36 89 79 128.5t86 39.5z" />
    <glyph glyph-name="Odieresis" unicode="&#xd6;" horiz-adv-x="1529" 
d="M778 1362q130 0 250 -49.5t211.5 -136.5t146 -215.5t54.5 -278.5q0 -162 -54 -297.5t-147 -225.5t-217.5 -140t-265.5 -50q-137 0 -260 52t-212.5 141.5t-141.5 216.5t-52 272q0 111 30 215.5t89 194t140.5 157t192 106t236.5 38.5zM737 1288q-87 0 -165 -37.5
t-139.5 -108t-97.5 -182.5t-36 -251q0 -190 64.5 -342.5t178.5 -238t257 -85.5q87 0 163.5 37t137 107t96 183.5t35.5 256.5q0 158 -39.5 285t-107.5 208t-156.5 124.5t-190.5 43.5zM958 1636q41 0 70 -29.5t29 -72.5q0 -40 -29 -69t-70 -29q-38 0 -67 29t-29 69
q0 42 28.5 72t67.5 30zM569 1634q41 0 69 -28.5t28 -71.5q0 -40 -28 -69t-69 -29q-40 0 -69 29t-29 69q0 42 29 71t69 29z" />
    <glyph glyph-name="multiply" unicode="&#xd7;" horiz-adv-x="1187" 
d="M1069 96l-76 -76l-399 408l-399 -408l-72 76l395 410l-395 405l72 78l399 -407l399 409l76 -76l-399 -409z" />
    <glyph glyph-name="Oslash" unicode="&#xd8;" horiz-adv-x="1533" 
d="M1296 1380l-102 -153q118 -95 189 -235.5t71 -305.5q0 -161 -54 -296.5t-147 -227t-219.5 -142.5t-269.5 -51q-196 0 -352 103l-117 -164l-53 49l108 158q-115 96 -181.5 234.5t-66.5 303.5q0 110 31 214.5t91.5 194t143.5 156.5t194.5 105.5t236.5 38.5q186 0 331 -94
l105 153zM442 252l617 907q-120 129 -307 129q-89 0 -168 -37.5t-141.5 -108t-99 -183.5t-36.5 -254q0 -133 36 -251.5t99 -201.5zM1106 1098l-614 -910q56 -71 136 -108t171 -37q112 0 200 46t141.5 126.5t81 184.5t27.5 225q0 276 -143 473z" />
    <glyph glyph-name="Ugrave" unicode="&#xd9;" horiz-adv-x="1507" 
d="M1466 1331v-57q-93 -6 -133 -32.5t-47 -88.5q-10 -92 -10 -332v-170q0 -191 -35 -320.5t-121 -219.5q-68 -71 -164 -106.5t-202 -35.5q-201 0 -328 99q-92 71 -136 189t-44 298v512q0 50 -1.5 78.5t-9.5 53.5t-16.5 35.5t-32.5 20t-47.5 12.5t-70.5 7v57h530v-57
q-45 -3 -70 -6t-48 -12t-32.5 -20t-17 -36t-9 -54t-1.5 -79v-467q0 -250 98 -384t287 -134q87 0 153.5 28.5t110.5 79t72 125t39.5 160.5t11.5 191v155q0 228 -14 338q-9 60 -50.5 83.5t-148.5 31.5v57h487zM899 1452l-29 -51l-381 131l-4 14q7 24 39 67.5t51 49.5
q229 -147 324 -211z" />
    <glyph glyph-name="Uacute" unicode="&#xda;" horiz-adv-x="1507" 
d="M1466 1331v-57q-93 -6 -133 -32.5t-47 -88.5q-10 -92 -10 -332v-170q0 -191 -35 -320.5t-121 -219.5q-68 -71 -164 -106.5t-202 -35.5q-201 0 -328 99q-92 71 -136 189t-44 298v512q0 50 -1.5 78.5t-9.5 53.5t-16.5 35.5t-32.5 20t-47.5 12.5t-70.5 7v57h530v-57
q-45 -3 -70 -6t-48 -12t-32.5 -20t-17 -36t-9 -54t-1.5 -79v-467q0 -250 98 -384t287 -134q87 0 153.5 28.5t110.5 79t72 125t39.5 160.5t11.5 191v155q0 228 -14 338q-9 60 -50.5 83.5t-148.5 31.5v57h487zM1063 1548l-4 -16l-381 -131l-25 51q48 31 105 68t122 79t95 62
q18 -3 50.5 -46.5t37.5 -66.5z" />
    <glyph glyph-name="Ucircumflex" unicode="&#xdb;" horiz-adv-x="1507" 
d="M1466 1331v-57q-93 -6 -133 -32.5t-47 -88.5q-10 -92 -10 -332v-170q0 -191 -35 -320.5t-121 -219.5q-68 -71 -164 -106.5t-202 -35.5q-201 0 -328 99q-92 71 -136 189t-44 298v512q0 50 -1.5 78.5t-9.5 53.5t-16.5 35.5t-32.5 20t-47.5 12.5t-70.5 7v57h530v-57
q-45 -3 -70 -6t-48 -12t-32.5 -20t-17 -36t-9 -54t-1.5 -79v-467q0 -250 98 -384t287 -134q87 0 153.5 28.5t110.5 79t72 125t39.5 160.5t11.5 191v155q0 228 -14 338q-9 60 -50.5 83.5t-148.5 31.5v57h487zM1059 1452l-33 -51q-104 44 -248 127q-162 -91 -246 -127l-32 51
q188 145 258 219h43q15 -15 31.5 -31t29.5 -28.5t33.5 -29.5t31 -26t34 -27.5t31.5 -24.5t35 -27t32 -25z" />
    <glyph glyph-name="Udieresis" unicode="&#xdc;" horiz-adv-x="1507" 
d="M1466 1331v-57q-93 -6 -133 -32.5t-47 -88.5q-10 -92 -10 -332v-170q0 -191 -35 -320.5t-121 -219.5q-68 -71 -164 -106.5t-202 -35.5q-201 0 -328 99q-92 71 -136 189t-44 298v512q0 50 -1.5 78.5t-9.5 53.5t-16.5 35.5t-32.5 20t-47.5 12.5t-70.5 7v57h530v-57
q-45 -3 -70 -6t-48 -12t-32.5 -20t-17 -36t-9 -54t-1.5 -79v-467q0 -250 98 -384t287 -134q87 0 153.5 28.5t110.5 79t72 125t39.5 160.5t11.5 191v155q0 228 -14 338q-9 60 -50.5 83.5t-148.5 31.5v57h487zM967 1626q41 0 68.5 -28.5t27.5 -71.5q0 -40 -27.5 -69.5
t-68.5 -29.5q-40 0 -69.5 29.5t-29.5 69.5q0 42 29.5 71t69.5 29zM575 1626q42 0 70.5 -29t28.5 -73q0 -39 -29 -69t-70 -30q-39 0 -67.5 30t-28.5 69q0 44 28 73t68 29z" />
    <glyph glyph-name="Yacute" unicode="&#xdd;" horiz-adv-x="1298" 
d="M1270 1331v-57q-103 -12 -143 -39t-101 -123q-143 -234 -260 -448q-20 -40 -26.5 -64.5t-6.5 -64.5v-279q0 -47 1.5 -74t10 -51t20 -35t37.5 -20t55 -12.5t81 -6.5v-57h-580v57q51 3 78.5 6.5t54 12.5t37 19.5t19.5 34.5t10.5 51.5t1.5 74.5v272q0 30 -8 52t-35 69
q-208 368 -258 451q-63 107 -100 136t-127 38v57h489v-57q-44 -5 -70 -12t-40 -15t-14.5 -21.5t4.5 -26.5t18 -36q39 -74 82.5 -152t107.5 -188t84 -145q178 316 244 461q37 76 18 99.5t-137 35.5v57h453zM963 1548l-2 -16l-381 -131l-25 51q49 32 160 104t162 105
q18 -3 49.5 -46.5t36.5 -66.5z" />
    <glyph glyph-name="Thorn" unicode="&#xde;" horiz-adv-x="1124" 
d="M590 1331v-57q-33 -3 -50.5 -4.5t-38 -7t-29.5 -11.5t-19.5 -19.5t-14 -28t-7.5 -41t-4.5 -54.5t-0.5 -72q122 4 180 4q209 0 323.5 -85.5t114.5 -264.5q0 -92 -39 -166t-105.5 -119.5t-150.5 -69.5t-178 -24l-145 35v-86q0 -48 1.5 -76t10 -52t19 -35.5t35 -20.5
t51.5 -12.5t75 -6.5v-57h-542v57q45 3 70 6.5t48 13t32.5 21.5t17 37.5t9 54.5t1.5 80v791q0 52 -1 80.5t-8 55t-16 37.5t-30.5 20.5t-45 13t-67.5 6.5v57h504zM426 887v-469q62 -25 139 -25q124 0 204.5 76t80.5 215q0 142 -76.5 214.5t-214.5 72.5q-80 0 -110 -19
q-12 -7 -17.5 -20t-5.5 -45z" />
    <glyph glyph-name="germandbls" unicode="&#xdf;" horiz-adv-x="1116" 
d="M211 895v25q0 90 22 176q42 144 170 252q119 99 263 110q142 -3 230 -83.5t91 -223.5q0 -49 -22 -86q-211 -162 -211 -279q0 -34 20 -68.5t43 -57.5t65 -59q4 -3 7 -5.5t6 -5.5q36 -32 58.5 -55t51 -59t42.5 -75.5t14 -81.5q0 -58 -25.5 -113.5t-66.5 -96.5t-90.5 -72.5
t-100.5 -47.5t-94 -16q-68 0 -113 27q-50 29 -41 68q3 12 14.5 29t22.5 26q23 16 43 2q74 -59 152 -59q54 0 99.5 41t45.5 126q0 63 -34.5 114.5t-104.5 111.5q-87 74 -127.5 133.5t-40.5 118.5q0 53 33 105t110 134q74 71 88 92q15 24 15 68q0 103 -70 182.5t-174 79.5
q-50 0 -88 -20t-62.5 -59.5t-40.5 -87t-24 -115t-11 -129t-3 -142.5v-606q0 -97 18 -124t90 -34v-55h-418v55q99 7 123.5 34t24.5 120v598h-145l-9 20l58 68h96z" />
    <glyph glyph-name="agrave" unicode="&#xe0;" horiz-adv-x="899" 
d="M887 80l-174 -105q-23 0 -51 11.5t-46 27.5q-33 35 -49 92q-12 -8 -49 -33.5t-55.5 -37.5t-47.5 -29t-50.5 -24t-38.5 -7q-106 0 -176 75t-70 175q0 146 166 203q261 87 317 133v37q0 108 -47 169.5t-125 61.5q-59 0 -92 -41q-36 -36 -61 -135q-11 -47 -60 -47
q-30 0 -60 27t-30 61q0 21 15.5 38.5t50.5 43.5q57 41 143 85t164 59q100 0 168 -56q92 -75 92 -250v-381q0 -64 21 -93t51 -29q36 0 73 22zM563 172v320q-6 -3 -184 -86q-64 -30 -94.5 -63.5t-30.5 -86.5q0 -74 45.5 -116t99.5 -42q39 1 86.5 23t77.5 51zM516 1032l-55 -26
q-49 68 -133.5 182.5t-106.5 144.5l6 17q13 8 74.5 18.5t83.5 7.5q22 -52 68.5 -178.5t62.5 -165.5z" />
    <glyph glyph-name="aacute" unicode="&#xe1;" horiz-adv-x="899" 
d="M887 80l-174 -105q-23 0 -51 11.5t-46 27.5q-33 35 -49 92q-12 -8 -49 -33.5t-55.5 -37.5t-47.5 -29t-50.5 -24t-38.5 -7q-106 0 -176 75t-70 175q0 146 166 203q261 87 317 133v37q0 108 -47 169.5t-125 61.5q-59 0 -92 -41q-36 -36 -61 -135q-11 -47 -60 -47
q-30 0 -60 27t-30 61q0 21 15.5 38.5t50.5 43.5q57 41 143 85t164 59q100 0 168 -56q92 -75 92 -250v-381q0 -64 21 -93t51 -29q36 0 73 22zM563 172v320q-6 -3 -184 -86q-64 -30 -94.5 -63.5t-30.5 -86.5q0 -74 45.5 -116t99.5 -42q39 1 86.5 23t77.5 51zM416 1010l-54 26
q64 142 138 326q16 7 82 14.5t84 3.5l6 -18z" />
    <glyph glyph-name="acircumflex" unicode="&#xe2;" horiz-adv-x="899" 
d="M887 80l-174 -105q-23 0 -51 11.5t-46 27.5q-33 35 -49 92q-12 -8 -49 -33.5t-55.5 -37.5t-47.5 -29t-50.5 -24t-38.5 -7q-106 0 -176 75t-70 175q0 146 166 203q261 87 317 133v37q0 108 -47 169.5t-125 61.5q-59 0 -92 -41q-36 -36 -61 -135q-11 -47 -60 -47
q-30 0 -60 27t-30 61q0 21 15.5 38.5t50.5 43.5q57 41 143 85t164 59q100 0 168 -56q92 -75 92 -250v-381q0 -64 21 -93t51 -29q36 0 73 22zM563 172v320q-6 -3 -184 -86q-64 -30 -94.5 -63.5t-30.5 -86.5q0 -74 45.5 -116t99.5 -42q39 1 86.5 23t77.5 51zM655 1040l-49 -34
q-92 85 -180 198q-88 -112 -180 -198l-49 34q115 164 204 334h52q95 -181 202 -334z" />
    <glyph glyph-name="atilde" unicode="&#xe3;" horiz-adv-x="899" 
d="M887 80l-174 -105q-23 0 -51 11.5t-46 27.5q-33 35 -49 92q-12 -8 -49 -33.5t-55.5 -37.5t-47.5 -29t-50.5 -24t-38.5 -7q-106 0 -176 75t-70 175q0 146 166 203q261 87 317 133v37q0 108 -47 169.5t-125 61.5q-59 0 -92 -41q-36 -36 -61 -135q-11 -47 -60 -47
q-30 0 -60 27t-30 61q0 21 15.5 38.5t50.5 43.5q57 41 143 85t164 59q100 0 168 -56q92 -75 92 -250v-381q0 -64 21 -93t51 -29q36 0 73 22zM563 172v320q-6 -3 -184 -86q-64 -30 -94.5 -63.5t-30.5 -86.5q0 -74 45.5 -116t99.5 -42q39 1 86.5 23t77.5 51zM221 1067l-53 33
q31 97 75 140.5t89 43.5t119 -39q76 -39 108 -39q26 0 46 22t44 70l51 -28q-58 -185 -161 -185q-52 0 -136 50q-55 30 -94 30q-48 0 -88 -98z" />
    <glyph glyph-name="adieresis" unicode="&#xe4;" horiz-adv-x="899" 
d="M887 80l-174 -105q-23 0 -51 11.5t-46 27.5q-33 35 -49 92q-12 -8 -49 -33.5t-55.5 -37.5t-47.5 -29t-50.5 -24t-38.5 -7q-106 0 -176 75t-70 175q0 146 166 203q261 87 317 133v37q0 108 -47 169.5t-125 61.5q-59 0 -92 -41q-36 -36 -61 -135q-11 -47 -60 -47
q-30 0 -60 27t-30 61q0 21 15.5 38.5t50.5 43.5q57 41 143 85t164 59q100 0 168 -56q92 -75 92 -250v-381q0 -64 21 -93t51 -29q36 0 73 22zM563 172v320q-6 -3 -184 -86q-64 -30 -94.5 -63.5t-30.5 -86.5q0 -74 45.5 -116t99.5 -42q39 1 86.5 23t77.5 51zM256 1102
q-39 0 -68.5 29.5t-29.5 68.5q0 43 29.5 73t70.5 30q40 0 67 -30t27 -73q0 -39 -28 -68.5t-68 -29.5zM600 1102q-39 0 -67.5 29.5t-28.5 68.5q0 43 28.5 73t69.5 30q40 0 68 -30t28 -73q0 -39 -28.5 -68.5t-69.5 -29.5z" />
    <glyph glyph-name="aring" unicode="&#xe5;" horiz-adv-x="899" 
d="M887 80l-174 -105q-23 0 -51 11.5t-46 27.5q-33 35 -49 92q-12 -8 -49 -33.5t-55.5 -37.5t-47.5 -29t-50.5 -24t-38.5 -7q-106 0 -176 75t-70 175q0 146 166 203q261 87 317 133v37q0 108 -47 169.5t-125 61.5q-59 0 -92 -41q-36 -36 -61 -135q-11 -47 -60 -47
q-30 0 -60 27t-30 61q0 21 15.5 38.5t50.5 43.5q57 41 143 85t164 59q100 0 168 -56q92 -75 92 -250v-381q0 -64 21 -93t51 -29q36 0 73 22zM563 172v320q-6 -3 -184 -86q-64 -30 -94.5 -63.5t-30.5 -86.5q0 -74 45.5 -116t99.5 -42q39 1 86.5 23t77.5 51zM430 1022
q-72 0 -127 49t-55 127q0 76 55.5 123t128.5 47q70 0 125 -47t55 -123q0 -78 -55 -127t-127 -49zM432 1085q40 0 65 32.5t25 80.5q0 47 -25 77t-67 30q-38 0 -64 -30.5t-26 -76.5q0 -48 26.5 -80.5t65.5 -32.5z" />
    <glyph glyph-name="ae" unicode="&#xe6;" horiz-adv-x="1374" 
d="M1278 215l35 -41q-43 -57 -94 -99t-97 -62t-81 -29t-62 -9q-110 0 -194.5 48.5t-135.5 134.5l-71 -56q-68 -52 -137.5 -89.5t-110.5 -37.5q-108 0 -178 75.5t-70 170.5q0 78 39 127t123 78q9 3 43.5 15t49 17t47 16.5t49.5 18t43.5 17.5t43 18.5t34 17t28.5 17.5v47
q0 96 -53 157.5t-128 61.5q-64 0 -96 -47q-27 -29 -57 -131q-13 -49 -55 -49q-27 0 -61 28t-34 58q0 45 64 88q52 38 141 82t168 62q93 0 152 -43q58 -42 84 -111q61 70 141.5 112.5t159.5 43.5q129 0 221 -95t94 -217q0 -35 -9.5 -50t-37.5 -21q-28 -5 -198.5 -16.5
t-344.5 -16.5q-1 -99 25.5 -176.5t72.5 -123.5t102 -69.5t118 -23.5q119 0 227 102zM961 844q-76 0 -140 -67.5t-78 -188.5q121 0 359 4q24 0 33.5 10t9.5 37q2 84 -48 144.5t-136 60.5zM406 104q126 0 215 115q-41 87 -41 273q-54 -25 -201 -86q-66 -27 -94.5 -59.5
t-28.5 -86.5q0 -72 45 -114t105 -42z" />
    <glyph glyph-name="ccedilla" unicode="&#xe7;" horiz-adv-x="862" 
d="M801 229l37 -45q-135 -163 -281 -200l-29 -37q-17 -28 -14 -42t29 -42q75 -72 75 -137q0 -61 -62 -116t-167 -91l-22 53q59 27 89.5 60t30.5 65q0 9 -2 17.5t-8.5 18t-9.5 14t-13 15.5t-12 13q-39 37 -44.5 61t20.5 62l61 77q-177 6 -290 127t-113 297q0 119 54 223.5
t153 180.5q154 117 313 117q46 0 100 -15.5t82 -40.5q34 -27 31 -61q0 -29 -26 -58.5t-48 -29.5q-15 0 -37 22q-94 84 -209 84q-44 0 -85.5 -18.5t-78 -56t-59 -102.5t-22.5 -148q-1 -85 20.5 -153t54.5 -109.5t75.5 -69.5t81.5 -38.5t75 -10.5q71 0 126.5 24t123.5 90z" />
    <glyph glyph-name="egrave" unicode="&#xe8;" horiz-adv-x="870" 
d="M776 217l33 -43q-59 -75 -129.5 -122.5t-118.5 -62t-86 -14.5q-122 0 -214.5 61.5t-138.5 160t-46 215.5q0 210 135 358q63 71 142.5 110.5t158.5 39.5q125 0 216 -95t91 -217q0 -31 -10 -45t-37 -20q-33 -6 -201.5 -18t-332.5 -17q1 -100 28 -178.5t72 -123.5t97 -68
t108 -23q125 0 233 102zM463 844q-74 0 -133.5 -66t-81.5 -186q168 0 346 6q27 0 38 9.5t11 31.5q2 83 -48 144t-132 61zM543 1032l-54 -26q-129 177 -241 327l8 17q13 8 74.5 18.5t83.5 7.5q16 -41 38.5 -100.5t50 -135t40.5 -108.5z" />
    <glyph glyph-name="eacute" unicode="&#xe9;" horiz-adv-x="870" 
d="M776 217l33 -43q-59 -75 -129.5 -122.5t-118.5 -62t-86 -14.5q-122 0 -214.5 61.5t-138.5 160t-46 215.5q0 210 135 358q63 71 142.5 110.5t158.5 39.5q125 0 216 -95t91 -217q0 -31 -10 -45t-37 -20q-33 -6 -201.5 -18t-332.5 -17q1 -100 28 -178.5t72 -123.5t97 -68
t108 -23q125 0 233 102zM463 844q-74 0 -133.5 -66t-81.5 -186q168 0 346 6q27 0 38 9.5t11 31.5q2 83 -48 144t-132 61zM446 1010l-53 26q56 123 137 326q16 7 82 14.5t84 3.5l6 -18z" />
    <glyph glyph-name="ecircumflex" unicode="&#xea;" horiz-adv-x="870" 
d="M776 217l33 -43q-59 -75 -129.5 -122.5t-118.5 -62t-86 -14.5q-122 0 -214.5 61.5t-138.5 160t-46 215.5q0 210 135 358q63 71 142.5 110.5t158.5 39.5q125 0 216 -95t91 -217q0 -31 -10 -45t-37 -20q-33 -6 -201.5 -18t-332.5 -17q1 -100 28 -178.5t72 -123.5t97 -68
t108 -23q125 0 233 102zM463 844q-74 0 -133.5 -66t-81.5 -186q168 0 346 6q27 0 38 9.5t11 31.5q2 83 -48 144t-132 61zM696 1040l-49 -34q-85 77 -180 198q-101 -125 -180 -198l-51 34q115 159 206 334h52q95 -181 202 -334z" />
    <glyph glyph-name="edieresis" unicode="&#xeb;" horiz-adv-x="870" 
d="M776 217l33 -43q-59 -75 -129.5 -122.5t-118.5 -62t-86 -14.5q-122 0 -214.5 61.5t-138.5 160t-46 215.5q0 210 135 358q63 71 142.5 110.5t158.5 39.5q125 0 216 -95t91 -217q0 -31 -10 -45t-37 -20q-33 -6 -201.5 -18t-332.5 -17q1 -100 28 -178.5t72 -123.5t97 -68
t108 -23q125 0 233 102zM463 844q-74 0 -133.5 -66t-81.5 -186q168 0 346 6q27 0 38 9.5t11 31.5q2 83 -48 144t-132 61zM287 1102q-39 0 -69 30t-30 68q0 43 30 73t71 30q40 0 67 -30t27 -73q0 -39 -28 -68.5t-68 -29.5zM631 1102q-39 0 -67.5 29.5t-28.5 68.5
q0 43 28.5 73t69.5 30q40 0 68 -30t28 -73q0 -39 -28.5 -68.5t-69.5 -29.5z" />
    <glyph glyph-name="igrave" unicode="&#xec;" horiz-adv-x="548" 
d="M516 0h-448v53q35 3 55.5 6.5t38.5 11.5t26 17.5t14 29.5t7.5 42.5t1.5 60.5v410q0 56 -2.5 81.5t-18 44.5t-37 24.5t-71.5 13.5v49q156 24 291 80v-703q0 -39 1 -61t7 -42t14 -29.5t26 -17.5t38.5 -11.5t56.5 -6.5v-53zM346 1032l-55 -26q-78 109 -240 327l6 17
q14 8 76 18.5t84 7.5q19 -47 64 -170.5t65 -173.5z" />
    <glyph glyph-name="iacute" unicode="&#xed;" horiz-adv-x="548" 
d="M516 0h-448v53q35 3 55.5 6.5t38.5 11.5t26 17.5t14 29.5t7.5 42.5t1.5 60.5v410q0 56 -2.5 81.5t-18 44.5t-37 24.5t-71.5 13.5v49q156 24 291 80v-703q0 -39 1 -61t7 -42t14 -29.5t26 -17.5t38.5 -11.5t56.5 -6.5v-53zM254 1010l-53 26q56 123 137 326q16 7 82 14.5
t84 3.5l6 -18z" />
    <glyph glyph-name="icircumflex" unicode="&#xee;" horiz-adv-x="548" 
d="M516 0h-448v53q35 3 55.5 6.5t38.5 11.5t26 17.5t14 29.5t7.5 42.5t1.5 60.5v410q0 56 -2.5 81.5t-18 44.5t-37 24.5t-71.5 13.5v49q156 24 291 80v-703q0 -39 1 -61t7 -42t14 -29.5t26 -17.5t38.5 -11.5t56.5 -6.5v-53zM500 1040l-49 -34q-95 88 -181 198
q-88 -112 -180 -198l-49 34q119 170 205 334h51q105 -195 203 -334z" />
    <glyph glyph-name="idieresis" unicode="&#xef;" horiz-adv-x="548" 
d="M516 0h-448v53q35 3 55.5 6.5t38.5 11.5t26 17.5t14 29.5t7.5 42.5t1.5 60.5v410q0 56 -2.5 81.5t-18 44.5t-37 24.5t-71.5 13.5v49q156 24 291 80v-703q0 -39 1 -61t7 -42t14 -29.5t26 -17.5t38.5 -11.5t56.5 -6.5v-53zM98 1102q-39 0 -68.5 29.5t-29.5 68.5
q0 43 29.5 73t70.5 30q40 0 67.5 -30t27.5 -73q0 -39 -28.5 -68.5t-68.5 -29.5zM442 1102q-39 0 -67.5 29.5t-28.5 68.5q0 43 28.5 73t69.5 30q40 0 68.5 -30t28.5 -73q0 -39 -29 -68.5t-70 -29.5z" />
    <glyph glyph-name="eth" unicode="&#xf0;" horiz-adv-x="1034" 
d="M922 1354l-234 -123q136 -143 202 -310.5t66 -373.5q0 -143 -37.5 -255t-102 -180t-143.5 -102.5t-167 -34.5q-95 0 -177.5 40t-136 105t-84 145.5t-30.5 162.5q0 96 28.5 178.5t75 139t106 96.5t121.5 59t121 19q107 0 197 -50q-37 170 -147 297l-297 -159l-33 63
l276 150q-164 149 -354 176q-9 12 -4.5 32.5t16.5 28.5q110 -6 230 -52t217 -126l258 137zM520 852q-113 0 -182.5 -101t-69.5 -266q0 -195 75 -317.5t200 -122.5q47 0 86 21t72.5 68.5t53.5 135.5t21 211q1 134 -13 194.5t-48 96.5q-83 80 -195 80z" />
    <glyph glyph-name="ntilde" unicode="&#xf1;" horiz-adv-x="1120" 
d="M1071 0h-426v53q91 9 113 36.5t22 133.5v342q0 234 -186 234q-102 0 -223 -105v-481q0 -38 1 -59.5t7 -40.5t13 -27.5t24.5 -16t35.5 -10.5t52 -6v-53h-445v53q39 4 60 7t40.5 11t27 16.5t14 27.5t7.5 40t1 58v424q0 53 -2.5 77.5t-18 42.5t-35.5 23.5t-67 14.5v47
q169 31 285 84v-164q28 21 137 96q96 62 170 62q123 0 193.5 -82t70.5 -230v-395q0 -57 2.5 -83t18 -44t37 -23t71.5 -10v-53zM342 1067l-53 33q31 97 75 140.5t89 43.5q44 0 118 -39q76 -39 109 -39q27 0 48 22.5t42 69.5l51 -28q-55 -185 -162 -185q-47 0 -135 50
q-55 30 -94 30q-48 0 -88 -98z" />
    <glyph glyph-name="ograve" unicode="&#xf2;" horiz-adv-x="1044" 
d="M524 920q189 0 317 -132.5t128 -324.5q0 -96 -27 -177.5t-71.5 -137.5t-102.5 -96t-120 -58.5t-124 -18.5q-102 0 -188 38.5t-142 102.5t-87 145t-31 167q0 121 43.5 218.5t111.5 155t144 88t149 30.5zM504 852q-100 0 -169 -96t-69 -262q0 -196 78 -323.5t203 -127.5
q104 0 167.5 88.5t63.5 286.5q0 122 -30.5 219t-94 156t-149.5 59zM604 1032l-55 -26q-49 68 -133.5 182.5t-106.5 144.5l6 17q13 8 74.5 18.5t83.5 7.5q22 -52 68.5 -178.5t62.5 -165.5z" />
    <glyph glyph-name="oacute" unicode="&#xf3;" horiz-adv-x="1044" 
d="M524 920q189 0 317 -132.5t128 -324.5q0 -96 -27 -177.5t-71.5 -137.5t-102.5 -96t-120 -58.5t-124 -18.5q-102 0 -188 38.5t-142 102.5t-87 145t-31 167q0 121 43.5 218.5t111.5 155t144 88t149 30.5zM504 852q-100 0 -169 -96t-69 -262q0 -196 78 -323.5t203 -127.5
q104 0 167.5 88.5t63.5 286.5q0 122 -30.5 219t-94 156t-149.5 59zM502 1010l-53 26q56 123 137 326q16 7 82 14.5t84 3.5l6 -18z" />
    <glyph glyph-name="ocircumflex" unicode="&#xf4;" horiz-adv-x="1044" 
d="M524 920q189 0 317 -132.5t128 -324.5q0 -96 -27 -177.5t-71.5 -137.5t-102.5 -96t-120 -58.5t-124 -18.5q-102 0 -188 38.5t-142 102.5t-87 145t-31 167q0 121 43.5 218.5t111.5 155t144 88t149 30.5zM504 852q-100 0 -169 -96t-69 -262q0 -196 78 -323.5t203 -127.5
q104 0 167.5 88.5t63.5 286.5q0 122 -30.5 219t-94 156t-149.5 59zM752 1040l-50 -34q-85 77 -180 198q-88 -112 -180 -198l-49 34q119 170 205 334h51q92 -176 203 -334z" />
    <glyph glyph-name="otilde" unicode="&#xf5;" horiz-adv-x="1044" 
d="M524 920q189 0 317 -132.5t128 -324.5q0 -96 -27 -177.5t-71.5 -137.5t-102.5 -96t-120 -58.5t-124 -18.5q-102 0 -188 38.5t-142 102.5t-87 145t-31 167q0 121 43.5 218.5t111.5 155t144 88t149 30.5zM504 852q-100 0 -169 -96t-69 -262q0 -196 78 -323.5t203 -127.5
q104 0 167.5 88.5t63.5 286.5q0 122 -30.5 219t-94 156t-149.5 59zM309 1067l-53 33q31 97 75 140.5t89 43.5t119 -39q76 -39 108 -39q27 0 48 22.5t42 69.5l51 -28q-55 -185 -161 -185q-47 0 -135 50q-56 30 -95 30q-48 0 -88 -98z" />
    <glyph glyph-name="odieresis" unicode="&#xf6;" horiz-adv-x="1044" 
d="M524 920q189 0 317 -132.5t128 -324.5q0 -96 -27 -177.5t-71.5 -137.5t-102.5 -96t-120 -58.5t-124 -18.5q-102 0 -188 38.5t-142 102.5t-87 145t-31 167q0 121 43.5 218.5t111.5 155t144 88t149 30.5zM504 852q-100 0 -169 -96t-69 -262q0 -196 78 -323.5t203 -127.5
q104 0 167.5 88.5t63.5 286.5q0 122 -30.5 219t-94 156t-149.5 59zM350 1102q-39 0 -68.5 29.5t-29.5 68.5q0 43 29.5 73t70.5 30q40 0 67 -30t27 -73q0 -39 -28 -68.5t-68 -29.5zM694 1102q-39 0 -67.5 29.5t-28.5 68.5q0 43 28.5 73t69.5 30q40 0 68.5 -30t28.5 -73
q0 -39 -29 -68.5t-70 -29.5z" />
    <glyph glyph-name="divide" unicode="&#xf7;" horiz-adv-x="1187" 
d="M598 725q-39 0 -69.5 30t-30.5 72q0 39 31 70t69 31q41 0 71.5 -30.5t30.5 -70.5q0 -42 -30 -72t-72 -30zM1083 471h-977v100h977v-100zM596 315q38 0 69 -29.5t31 -70.5q0 -39 -31.5 -69.5t-68.5 -30.5q-42 0 -72 30t-30 70q0 43 29.5 71.5t72.5 28.5z" />
    <glyph glyph-name="oslash" unicode="&#xf8;" horiz-adv-x="1050" 
d="M885 930l-74 -109q77 -64 120.5 -157t43.5 -199q0 -117 -40 -212.5t-105 -154.5t-142.5 -91t-157.5 -32q-129 0 -235 64l-82 -113l-51 45l78 107q-77 66 -120.5 159.5t-43.5 192.5q0 97 29 179.5t76.5 138.5t108 96t122 58t120.5 18q119 0 224 -60l73 107zM322 205
l368 557q-30 41 -78 65.5t-102 24.5q-107 0 -179.5 -99.5t-72.5 -275.5q0 -163 64 -272zM731 698l-366 -555q65 -100 184 -100q105 0 174.5 97.5t69.5 297.5q0 148 -62 260z" />
    <glyph glyph-name="ugrave" unicode="&#xf9;" horiz-adv-x="1087" 
d="M1061 100v-51q-113 -17 -301 -74l-12 13v145q-97 -72 -152 -106q-88 -52 -158 -52q-112 0 -183 75t-71 231v401q0 84 -18.5 105t-106.5 38v47q139 9 293 37q-6 -63 -6 -299v-274q0 -126 50.5 -179t129.5 -53q120 0 222 99v477q0 32 -1 50t-8 35t-15 24.5t-29.5 15t-43 11
t-63.5 9.5v47q199 11 321 37v-684q0 -75 17.5 -96.5t77.5 -24.5zM600 1032l-55 -26q-49 68 -133.5 182.5t-106.5 144.5l6 17q13 8 74.5 18.5t83.5 7.5q22 -52 68.5 -178.5t62.5 -165.5z" />
    <glyph glyph-name="uacute" unicode="&#xfa;" horiz-adv-x="1087" 
d="M1061 100v-51q-113 -17 -301 -74l-12 13v145q-97 -72 -152 -106q-88 -52 -158 -52q-112 0 -183 75t-71 231v401q0 84 -18.5 105t-106.5 38v47q139 9 293 37q-6 -63 -6 -299v-274q0 -126 50.5 -179t129.5 -53q120 0 222 99v477q0 32 -1 50t-8 35t-15 24.5t-29.5 15t-43 11
t-63.5 9.5v47q199 11 321 37v-684q0 -75 17.5 -96.5t77.5 -24.5zM516 1010l-53 26q56 123 137 326q16 7 82 14.5t84 3.5l6 -18z" />
    <glyph glyph-name="ucircumflex" unicode="&#xfb;" horiz-adv-x="1087" 
d="M1061 100v-51q-113 -17 -301 -74l-12 13v145q-97 -72 -152 -106q-88 -52 -158 -52q-112 0 -183 75t-71 231v401q0 84 -18.5 105t-106.5 38v47q139 9 293 37q-6 -63 -6 -299v-274q0 -126 50.5 -179t129.5 -53q120 0 222 99v477q0 32 -1 50t-8 35t-15 24.5t-29.5 15t-43 11
t-63.5 9.5v47q199 11 321 37v-684q0 -75 17.5 -96.5t77.5 -24.5zM766 1040l-51 -34q-85 78 -178 198q-92 -114 -183 -198l-49 34q106 148 207 334h51q92 -176 203 -334z" />
    <glyph glyph-name="udieresis" unicode="&#xfc;" horiz-adv-x="1087" 
d="M1061 100v-51q-113 -17 -301 -74l-12 13v145q-97 -72 -152 -106q-88 -52 -158 -52q-112 0 -183 75t-71 231v401q0 84 -18.5 105t-106.5 38v47q139 9 293 37q-6 -63 -6 -299v-274q0 -126 50.5 -179t129.5 -53q120 0 222 99v477q0 32 -1 50t-8 35t-15 24.5t-29.5 15t-43 11
t-63.5 9.5v47q199 11 321 37v-684q0 -75 17.5 -96.5t77.5 -24.5zM356 1102q-39 0 -68.5 29.5t-29.5 68.5q0 43 29.5 73t70.5 30q40 0 67.5 -30t27.5 -73q0 -39 -28.5 -68.5t-68.5 -29.5zM700 1102q-39 0 -67.5 29.5t-28.5 68.5q0 43 28.5 73t69.5 30q40 0 68.5 -30t28.5 -73
q0 -39 -29 -68.5t-70 -29.5z" />
    <glyph glyph-name="yacute" unicode="&#xfd;" horiz-adv-x="940" 
d="M979 895v-51q-81 -12 -110.5 -36.5t-71.5 -113.5q-22 -48 -53 -122.5t-89.5 -218.5t-113.5 -275q-105 -251 -147.5 -362t-63.5 -193q-13 -49 -66 -49q-43 0 -80 30.5t-37 67.5q0 23 12.5 39t41.5 35q47 30 81 72t70 110q49 91 64 141q14 44 -2 92q-142 404 -236 627
q-33 88 -63.5 116t-112.5 40v51h416v-51q-70 -12 -84.5 -34t6.5 -79l186 -514q102 248 189 510q19 60 -1 82.5t-106 34.5v51h371zM502 1010l-53 26q56 123 137 326q16 7 82 14.5t84 3.5l6 -18z" />
    <glyph glyph-name="thorn" unicode="&#xfe;" horiz-adv-x="1052" 
d="M319 1458v-672q129 71 226 117q39 17 73 17q82 0 151 -34.5t113 -90t68.5 -124t24.5 -139.5q1 -220 -146 -369t-366 -188q-83 5 -144 41v-288q0 -58 4.5 -86t26.5 -47.5t53.5 -25t98.5 -9.5v-56h-492v56q53 4 77.5 9.5t43 23.5t23 47t4.5 84v1460q0 39 -0.5 59.5t-7 40
t-13 27t-26 15t-39 10t-58.5 5.5v50q154 15 305 67zM319 719v-555q32 -35 89 -59.5t112 -24.5q54 0 103.5 21t91 63t66 115t24.5 167q0 171 -79.5 262t-203.5 91q-90 0 -203 -80z" />
    <glyph glyph-name="ydieresis" unicode="&#xff;" horiz-adv-x="940" 
d="M979 895v-51q-81 -12 -110.5 -36.5t-71.5 -113.5q-22 -48 -53 -122.5t-89.5 -218.5t-113.5 -275q-105 -251 -147.5 -362t-63.5 -193q-13 -49 -66 -49q-43 0 -80 30.5t-37 67.5q0 23 12.5 39t41.5 35q47 30 81 72t70 110q49 91 64 141q14 44 -2 92q-142 404 -236 627
q-33 88 -63.5 116t-112.5 40v51h416v-51q-70 -12 -84.5 -34t6.5 -79l186 -514q102 248 189 510q19 60 -1 82.5t-106 34.5v51h371zM319 1102q-38 0 -67 30t-29 68q0 42 29.5 72.5t69.5 30.5q41 0 68.5 -30t27.5 -73q0 -39 -28.5 -68.5t-70.5 -29.5zM666 1102q-40 0 -69.5 30
t-29.5 68q0 43 30 73t71 30q40 0 68 -30t28 -73q0 -39 -28.5 -68.5t-69.5 -29.5z" />
    <glyph glyph-name="Amacron" unicode="&#x100;" horiz-adv-x="1415" 
d="M1378 0h-501v57q97 12 118.5 32.5t1.5 80.5q-21 62 -112 315h-436q-65 -181 -91 -264q-12 -34 -17.5 -56t-3.5 -40.5t10 -29t27 -18.5t44.5 -12t66.5 -8v-57h-444v57q55 8 81 15t54 30t47 59.5t47 106.5l424 1075l64 19q28 -78 173 -483.5t222 -614.5q26 -70 43.5 -105.5
t44 -59t55 -30.5t82.5 -12v-57zM856 573l-180 523h-4q-98 -260 -193 -523h377zM958 1464h-458v107h458v-107z" />
    <glyph glyph-name="amacron" unicode="&#x101;" horiz-adv-x="899" 
d="M887 80l-174 -105q-23 0 -51 11.5t-46 27.5q-33 35 -49 92q-12 -8 -49 -33.5t-55.5 -37.5t-47.5 -29t-50.5 -24t-38.5 -7q-106 0 -176 75t-70 175q0 146 166 203q261 87 317 133v37q0 108 -47 169.5t-125 61.5q-59 0 -92 -41q-36 -36 -61 -135q-11 -47 -60 -47
q-30 0 -60 27t-30 61q0 21 15.5 38.5t50.5 43.5q57 41 143 85t164 59q100 0 168 -56q92 -75 92 -250v-381q0 -64 21 -93t51 -29q36 0 73 22zM563 172v320q-6 -3 -184 -86q-64 -30 -94.5 -63.5t-30.5 -86.5q0 -74 45.5 -116t99.5 -42q39 1 86.5 23t77.5 51zM647 1122h-450
v113h450v-113z" />
    <glyph glyph-name="Abreve" unicode="&#x102;" horiz-adv-x="1415" 
d="M1378 0h-501v57q97 12 118.5 32.5t1.5 80.5q-21 62 -112 315h-436q-65 -181 -91 -264q-12 -34 -17.5 -56t-3.5 -40.5t10 -29t27 -18.5t44.5 -12t66.5 -8v-57h-444v57q55 8 81 15t54 30t47 59.5t47 106.5l424 1075l64 19q28 -78 173 -483.5t222 -614.5q26 -70 43.5 -105.5
t44 -59t55 -30.5t82.5 -12v-57zM856 573l-180 523h-4q-98 -260 -193 -523h377zM905 1665h62q-1 -118 -66.5 -180t-173.5 -62q-109 0 -174 62t-66 180h62q31 -125 178 -125t178 125z" />
    <glyph glyph-name="abreve" unicode="&#x103;" horiz-adv-x="899" 
d="M887 80l-174 -105q-23 0 -51 11.5t-46 27.5q-33 35 -49 92q-12 -8 -49 -33.5t-55.5 -37.5t-47.5 -29t-50.5 -24t-38.5 -7q-106 0 -176 75t-70 175q0 146 166 203q261 87 317 133v37q0 108 -47 169.5t-125 61.5q-59 0 -92 -41q-36 -36 -61 -135q-11 -47 -60 -47
q-30 0 -60 27t-30 61q0 21 15.5 38.5t50.5 43.5q57 41 143 85t164 59q100 0 168 -56q92 -75 92 -250v-381q0 -64 21 -93t51 -29q36 0 73 22zM563 172v320q-6 -3 -184 -86q-64 -30 -94.5 -63.5t-30.5 -86.5q0 -74 45.5 -116t99.5 -42q39 1 86.5 23t77.5 51zM588 1327h61
q0 -149 -63 -214.5t-166 -65.5q-100 0 -162.5 65.5t-62.5 214.5h61q10 -79 54 -120.5t112 -41.5t112 41.5t54 120.5z" />
    <glyph glyph-name="Aogonek" unicode="&#x104;" horiz-adv-x="1415" 
d="M1378 0h-346q-45 -39 -87 -118.5t-42 -135.5q0 -54 33 -83.5t86 -29.5q32 0 94 23l17 -51l-117 -70q-33 -20 -70 -20q-94 0 -138 50t-44 122q0 48 21 100.5t61 105t71.5 87.5t77.5 81q16 16 18.5 31t-5.5 43q-9 30 -32 94.5t-52 143.5t-41 112h-432q-53 -138 -93 -264
q-18 -52 -21.5 -79.5t11.5 -46.5t45.5 -26.5t93.5 -13.5v-55h-446v55q53 8 80 15.5t54.5 30.5t47 60.5t47.5 108.5q162 401 424 1073q10 3 32 9.5t32 9.5q28 -78 173 -483.5t222 -614.5q34 -91 60.5 -131t60.5 -56.5t104 -23.5v-53zM856 573l-178 519h-4q-17 -43 -195 -519
h377z" />
    <glyph glyph-name="aogonek" unicode="&#x105;" horiz-adv-x="899" 
d="M868 133l21 -51q-14 -7 -57 -34.5t-46 -29.5q-78 -49 -143 -132t-65 -154q0 -94 108 -94q38 0 86 20l16 -53l-104 -62q-43 -24 -74 -24q-83 0 -127.5 42t-44.5 117q0 139 219 316q-27 12 -53.5 42.5t-36.5 69.5q-12 -8 -49 -33.5t-55.5 -37.5t-47.5 -29t-50.5 -24
t-38.5 -7q-106 0 -176 75t-70 175q0 146 166 203q260 87 319 133v39q0 109 -46 170t-124 61q-54 0 -94 -43q-29 -31 -59 -133q-14 -49 -62 -49q-29 0 -58.5 27t-29.5 61q0 22 15.5 41t48.5 43q53 38 142 81.5t167 60.5q98 0 166 -56q51 -42 70.5 -102t19.5 -146v-383
q0 -64 21 -93t53 -29q36 0 73 22zM565 174v320q-9 -5 -184 -86q-64 -29 -94.5 -64t-30.5 -88q0 -74 45.5 -116t99.5 -42q39 1 86.5 23.5t77.5 52.5z" />
    <glyph glyph-name="Cacute" unicode="&#x106;" horiz-adv-x="1361" 
d="M1257 360l60 -22q-70 -226 -117 -313q-228 -56 -377 -56q-148 0 -271.5 39.5t-207.5 105.5t-142.5 154t-85 183.5t-26.5 195.5q0 211 101.5 374.5t281 252t406.5 88.5q74 0 147 -10.5t141 -27t74 -17.5q36 -261 41 -310l-61 -14q-39 161 -134.5 233t-263.5 72
q-124 0 -225.5 -50t-165.5 -134t-98.5 -191t-34.5 -225q0 -141 40.5 -262t111.5 -204.5t170.5 -131t214.5 -47.5q150 0 245 77t176 240zM1055 1579l-4 -16l-379 -131l-27 51q49 31 106 68t121.5 79t94.5 62q18 -3 50.5 -46.5t37.5 -66.5z" />
    <glyph glyph-name="cacute" unicode="&#x107;" horiz-adv-x="866" 
d="M801 227l35 -43q-69 -92 -164.5 -150.5t-184.5 -58.5q-124 0 -219 62t-142.5 158t-47.5 208q0 243 205 402q74 57 158 86t151 29q58 0 106.5 -16t75.5 -38q33 -28 33 -63q0 -30 -24.5 -59t-43.5 -29q-14 0 -39 22q-90 84 -204 84q-107 0 -180.5 -86.5t-73.5 -240.5
q0 -82 21.5 -148.5t54 -108.5t75 -70.5t82 -40t76.5 -11.5q69 0 125.5 24t124.5 88zM467 1010l-53 26q56 123 137 326q16 7 82 14.5t84 3.5l6 -18z" />
    <glyph glyph-name="Ccircumflex" unicode="&#x108;" horiz-adv-x="1361" 
d="M1257 360l60 -22q-70 -226 -117 -313q-228 -56 -377 -56q-148 0 -271.5 39.5t-207.5 105.5t-142.5 154t-85 183.5t-26.5 195.5q0 211 101.5 374.5t281 252t406.5 88.5q74 0 147 -10.5t141 -27t74 -17.5q36 -261 41 -310l-61 -14q-39 161 -134.5 233t-263.5 72
q-124 0 -225.5 -50t-165.5 -134t-98.5 -191t-34.5 -225q0 -141 40.5 -262t111.5 -204.5t170.5 -131t214.5 -47.5q150 0 245 77t176 240zM1092 1481l-33 -51q-123 52 -248 126q-155 -87 -246 -126l-33 51q9 7 37 28.5t39.5 30.5t36 28.5t39.5 32t35.5 30.5t37.5 35l34 34h43
q19 -21 41.5 -42.5t40 -37t45.5 -38t41.5 -33t46 -35.5t43.5 -33z" />
    <glyph glyph-name="ccircumflex" unicode="&#x109;" horiz-adv-x="866" 
d="M801 227l35 -43q-69 -92 -164.5 -150.5t-184.5 -58.5q-124 0 -219 62t-142.5 158t-47.5 208q0 243 205 402q74 57 158 86t151 29q58 0 106.5 -16t75.5 -38q33 -28 33 -63q0 -30 -24.5 -59t-43.5 -29q-14 0 -39 22q-90 84 -204 84q-107 0 -180.5 -86.5t-73.5 -240.5
q0 -82 21.5 -148.5t54 -108.5t75 -70.5t82 -40t76.5 -11.5q69 0 125.5 24t124.5 88zM729 1040l-49 -34q-92 85 -180 198q-85 -109 -181 -198l-49 34q119 170 205 334h51q92 -176 203 -334z" />
    <glyph glyph-name="Cdotaccent" unicode="&#x10a;" horiz-adv-x="1361" 
d="M1257 360l60 -22q-70 -226 -117 -313q-228 -56 -377 -56q-148 0 -271.5 39.5t-207.5 105.5t-142.5 154t-85 183.5t-26.5 195.5q0 211 101.5 374.5t281 252t406.5 88.5q74 0 147 -10.5t141 -27t74 -17.5q36 -261 41 -310l-61 -14q-39 161 -134.5 233t-263.5 72
q-124 0 -225.5 -50t-165.5 -134t-98.5 -191t-34.5 -225q0 -141 40.5 -262t111.5 -204.5t170.5 -131t214.5 -47.5q150 0 245 77t176 240zM817 1661q44 0 74.5 -31.5t30.5 -77.5q0 -44 -30.5 -74t-74.5 -30t-74 30t-30 74q0 46 30 77.5t74 31.5z" />
    <glyph glyph-name="cdotaccent" unicode="&#x10b;" horiz-adv-x="866" 
d="M801 227l35 -43q-69 -92 -164.5 -150.5t-184.5 -58.5q-124 0 -219 62t-142.5 158t-47.5 208q0 243 205 402q74 57 158 86t151 29q58 0 106.5 -16t75.5 -38q33 -28 33 -63q0 -30 -24.5 -59t-43.5 -29q-14 0 -39 22q-90 84 -204 84q-107 0 -180.5 -86.5t-73.5 -240.5
q0 -82 21.5 -148.5t54 -108.5t75 -70.5t82 -40t76.5 -11.5q69 0 125.5 24t124.5 88zM496 1102q-41 0 -72 30.5t-31 71.5q0 45 31 77t74 32t71.5 -31.5t28.5 -77.5q0 -42 -29 -72t-73 -30z" />
    <glyph glyph-name="Ccaron" unicode="&#x10c;" horiz-adv-x="1361" 
d="M1257 360l60 -22q-70 -226 -117 -313q-228 -56 -377 -56q-148 0 -271.5 39.5t-207.5 105.5t-142.5 154t-85 183.5t-26.5 195.5q0 211 101.5 374.5t281 252t406.5 88.5q74 0 147 -10.5t141 -27t74 -17.5q36 -261 41 -310l-61 -14q-39 161 -134.5 233t-263.5 72
q-124 0 -225.5 -50t-165.5 -134t-98.5 -191t-34.5 -225q0 -141 40.5 -262t111.5 -204.5t170.5 -131t214.5 -47.5q150 0 245 77t176 240zM1061 1712l31 -53q-166 -124 -256 -219h-45q-75 77 -259 219l31 53q143 -63 250 -127q111 65 248 127z" />
    <glyph glyph-name="ccaron" unicode="&#x10d;" horiz-adv-x="866" 
d="M801 227l35 -43q-69 -92 -164.5 -150.5t-184.5 -58.5q-124 0 -219 62t-142.5 158t-47.5 208q0 243 205 402q74 57 158 86t151 29q58 0 106.5 -16t75.5 -38q33 -28 33 -63q0 -30 -24.5 -59t-43.5 -29q-14 0 -39 22q-90 84 -204 84q-107 0 -180.5 -86.5t-73.5 -240.5
q0 -82 21.5 -148.5t54 -108.5t75 -70.5t82 -40t76.5 -11.5q69 0 125.5 24t124.5 88zM686 1382l51 -34q-106 -148 -207 -334h-49q-91 172 -205 334l52 34q97 -94 178 -198q102 122 180 198z" />
    <glyph glyph-name="Dcaron" unicode="&#x10e;" horiz-adv-x="1505" 
d="M86 1331h576q396 0 579 -174q172 -169 172 -440q0 -357 -252 -547q-220 -170 -608 -170h-485v55q49 3 76 6.5t51.5 12.5t35 19.5t18.5 34.5t9.5 51t1.5 75v821q0 48 -1.5 75.5t-9 51t-16.5 34t-32.5 19t-46.5 11.5t-68 6v59zM436 1120v-852q0 -113 49.5 -153.5
t167.5 -40.5q139 0 248 49.5t176 135t101 194.5t34 235q0 163 -60.5 291.5t-180.5 198.5q-131 84 -348 84q-124 0 -160 -25q-15 -11 -21 -34.5t-6 -82.5zM950 1681l31 -53q-166 -125 -256 -219h-45q-15 15 -31.5 31t-29.5 28.5t-33.5 29.5t-31 26t-34 27.5t-31.5 24.5
t-35 27t-32 25l33 53q141 -64 247 -127q111 65 248 127z" />
    <glyph glyph-name="dcaron" unicode="&#x10f;" horiz-adv-x="1081" 
d="M1059 104v-51q-201 -36 -318 -78v134l-125 -74q-102 -60 -159 -60q-63 0 -128.5 28.5t-122 81.5t-92.5 138.5t-36 188.5q0 139 73.5 256.5t195 184.5t259.5 67q67 0 135 -23v289q0 38 -1 58t-7.5 38.5t-14 26t-29 14.5t-42.5 9t-63 5v49q185 24 319 72v-1222
q0 -78 15.5 -98.5t74.5 -26.5zM741 174v565q-35 52 -92 78.5t-119 26.5q-31 0 -64 -10t-70 -37.5t-65.5 -68t-47.5 -108.5t-19 -153q0 -88 25 -159t66.5 -114.5t90 -66.5t99.5 -23q103 0 196 70zM1083 1456q52 0 88.5 -45.5t36.5 -116.5q0 -85 -48.5 -138t-127.5 -77l-22 56
q94 49 94 116q0 60 -66 80q-26 9 -26 51q0 35 21.5 54.5t49.5 19.5z" />
    <glyph glyph-name="Dcroat" unicode="&#x110;" horiz-adv-x="1509" 
d="M111 1331h563q386 0 567 -176q80 -76 128 -188.5t48 -249.5q0 -357 -256 -547q-226 -170 -598 -170h-471v57q49 3 76 6.5t51.5 14t35 22.5t19 39t10 58t1.5 84v374h-209v84h209v312q0 53 -1.5 84t-9 58t-16.5 39t-32 22t-47 13.5t-68 6.5v57zM459 655v-385q0 -55 7 -88.5
t28 -59t60.5 -36t102.5 -10.5q112 0 204.5 32t156.5 88t108.5 133.5t65 167t20.5 189.5q0 168 -59 296t-176 200q-127 82 -332 82q-122 0 -160 -21q-26 -14 -26 -88v-416h323v-84h-323z" />
    <glyph glyph-name="dcroat" unicode="&#x111;" horiz-adv-x="1077" 
d="M1059 104v-51q-205 -36 -318 -78v136l-129 -76q-102 -60 -155 -60q-63 0 -128.5 29t-122.5 82t-93 139t-37 189q0 135 72.5 252t194 185.5t259.5 68.5q71 0 139 -25v197h-272v75h270v43q-1 84 -23 103t-126 28v48q159 21 311 71v-293h156v-75h-156v-854q0 -80 16 -101
t76 -26zM741 174v565q-36 51 -94.5 79t-114.5 28q-28 0 -60.5 -9.5t-70.5 -36.5t-68 -67.5t-50.5 -109.5t-20.5 -156q0 -89 25.5 -161t67 -115t90.5 -66t100 -23q91 0 196 72z" />
    <glyph glyph-name="Emacron" unicode="&#x112;" horiz-adv-x="1163" 
d="M1057 332l61 -8q-35 -197 -71 -324h-988v57q76 6 111.5 12.5t59 29.5t28 55t4.5 100v815q0 50 -1.5 78.5t-9.5 53t-16.5 35t-32.5 19.5t-46.5 12t-69.5 7v57h913l17 -295l-60 -10q-22 104 -65 176q-22 32 -72.5 45t-159.5 13h-155q-47 0 -57.5 -10t-10.5 -56v-465h193
q49 0 78.5 1.5t54.5 8.5t36.5 15t22.5 29t16 40.5t13 59.5h59v-394h-59q-8 41 -13 63.5t-16.5 43t-23 29t-37 15.5t-53 8t-76.5 1h-195v-387q0 -72 10.5 -109t38.5 -57q27 -17 74 -21.5t139 -4.5q116 0 170 14.5t88 54.5q61 71 101 193zM842 1466h-457v107h457v-107z" />
    <glyph glyph-name="emacron" unicode="&#x113;" horiz-adv-x="870" 
d="M776 217l33 -43q-59 -75 -129.5 -122.5t-118.5 -62t-86 -14.5q-122 0 -214.5 61.5t-138.5 160t-46 215.5q0 210 135 358q63 71 142.5 110.5t158.5 39.5q125 0 216 -95t91 -217q0 -31 -10 -45t-37 -20q-33 -6 -201.5 -18t-332.5 -17q1 -100 28 -178.5t72 -123.5t97 -68
t108 -23q125 0 233 102zM463 844q-74 0 -133.5 -66t-81.5 -186q168 0 346 6q27 0 38 9.5t11 31.5q2 83 -48 144t-132 61zM694 1122h-448v113h448v-113z" />
    <glyph glyph-name="Ebreve" unicode="&#x114;" horiz-adv-x="1163" 
d="M1057 332l61 -8q-35 -197 -71 -324h-988v57q76 6 111.5 12.5t59 29.5t28 55t4.5 100v815q0 50 -1.5 78.5t-9.5 53t-16.5 35t-32.5 19.5t-46.5 12t-69.5 7v57h913l17 -295l-60 -10q-22 104 -65 176q-22 32 -72.5 45t-159.5 13h-155q-47 0 -57.5 -10t-10.5 -56v-465h193
q49 0 78.5 1.5t54.5 8.5t36.5 15t22.5 29t16 40.5t13 59.5h59v-394h-59q-8 41 -13 63.5t-16.5 43t-23 29t-37 15.5t-53 8t-76.5 1h-195v-387q0 -72 10.5 -109t38.5 -57q27 -17 74 -21.5t139 -4.5q116 0 170 14.5t88 54.5q61 71 101 193zM791 1667h61q-1 -119 -66.5 -180.5
t-173.5 -61.5q-109 0 -173.5 61t-65.5 181h61q32 -127 178 -127q147 0 179 127z" />
    <glyph glyph-name="ebreve" unicode="&#x115;" horiz-adv-x="870" 
d="M776 217l33 -43q-59 -75 -129.5 -122.5t-118.5 -62t-86 -14.5q-122 0 -214.5 61.5t-138.5 160t-46 215.5q0 210 135 358q63 71 142.5 110.5t158.5 39.5q125 0 216 -95t91 -217q0 -31 -10 -45t-37 -20q-33 -6 -201.5 -18t-332.5 -17q1 -100 28 -178.5t72 -123.5t97 -68
t108 -23q125 0 233 102zM463 844q-74 0 -133.5 -66t-81.5 -186q168 0 346 6q27 0 38 9.5t11 31.5q2 83 -48 144t-132 61zM641 1327h61q0 -149 -63 -214.5t-166 -65.5q-100 0 -162.5 65.5t-62.5 214.5h61q10 -79 54 -120.5t112 -41.5t112 41.5t54 120.5z" />
    <glyph glyph-name="Edotaccent" unicode="&#x116;" horiz-adv-x="1163" 
d="M1057 332l61 -8q-35 -197 -71 -324h-988v57q76 6 111.5 12.5t59 29.5t28 55t4.5 100v815q0 50 -1.5 78.5t-9.5 53t-16.5 35t-32.5 19.5t-46.5 12t-69.5 7v57h913l17 -295l-60 -10q-22 104 -65 176q-22 32 -72.5 45t-159.5 13h-155q-47 0 -57.5 -10t-10.5 -56v-465h193
q49 0 78.5 1.5t54.5 8.5t36.5 15t22.5 29t16 40.5t13 59.5h59v-394h-59q-8 41 -13 63.5t-16.5 43t-23 29t-37 15.5t-53 8t-76.5 1h-195v-387q0 -72 10.5 -109t38.5 -57q27 -17 74 -21.5t139 -4.5q116 0 170 14.5t88 54.5q61 71 101 193zM610 1653q44 0 75.5 -31.5
t31.5 -77.5q0 -44 -31 -74t-76 -30q-43 0 -73.5 30t-30.5 74q0 46 30.5 77.5t73.5 31.5z" />
    <glyph glyph-name="edotaccent" unicode="&#x117;" horiz-adv-x="870" 
d="M776 217l33 -43q-59 -75 -129.5 -122.5t-118.5 -62t-86 -14.5q-122 0 -214.5 61.5t-138.5 160t-46 215.5q0 210 135 358q63 71 142.5 110.5t158.5 39.5q125 0 216 -95t91 -217q0 -31 -10 -45t-37 -20q-33 -6 -201.5 -18t-332.5 -17q1 -100 28 -178.5t72 -123.5t97 -68
t108 -23q125 0 233 102zM463 844q-74 0 -133.5 -66t-81.5 -186q168 0 346 6q27 0 38 9.5t11 31.5q2 83 -48 144t-132 61zM467 1102q-41 0 -71.5 30.5t-30.5 71.5q0 46 30.5 77.5t73.5 31.5t71.5 -31.5t28.5 -77.5q0 -42 -29 -72t-73 -30z" />
    <glyph glyph-name="Eogonek" unicode="&#x118;" horiz-adv-x="1163" 
d="M1059 334l59 -10q-35 -197 -71 -324h-76q-74 -62 -120 -139t-46 -135q0 -48 28.5 -70.5t73.5 -22.5q47 0 97 23l16 -53l-109 -66q-13 -9 -37 -16.5t-38 -7.5q-87 0 -129.5 42.5t-42.5 110.5q0 76 64 166.5t161 167.5h-830v57q51 4 80 7.5t55 13t37 20.5t19.5 36t10 52.5
t1.5 75.5v801q0 50 -1.5 79t-9 54t-17 36.5t-32.5 21t-47 13t-69 7.5v57h909q1 -35 21 -295l-60 -8q-16 68 -32 108t-41 70q-28 31 -76 42.5t-156 11.5h-147q-47 0 -57.5 -10.5t-10.5 -55.5v-459h199q51 0 79 0.5t53 8t35 13t21 27.5t15 38.5t12 58.5h59v-381h-59
q-6 31 -9.5 48t-10.5 36t-12 27t-18 17.5t-24.5 12.5t-34.5 6t-44.5 3.5t-59.5 0.5h-201v-383q0 -73 11 -112.5t38 -59.5q27 -17 74 -21.5t139 -4.5q112 0 169 16t91 55q42 51 101 193z" />
    <glyph glyph-name="eogonek" unicode="&#x119;" horiz-adv-x="868" 
d="M543 -14l-2 6q-51 -17 -68 -17q-122 0 -214.5 61.5t-138.5 160t-46 215.5q0 212 133 354q67 74 146.5 114t156.5 40q126 0 217.5 -95t91.5 -217q0 -32 -9.5 -46.5t-37.5 -20.5q-29 -5 -198.5 -16.5t-337.5 -16.5q1 -101 28.5 -179.5t72 -124t96.5 -68.5t108 -23
q125 0 235 104l33 -43q-52 -62 -109 -108q-86 -71 -155.5 -168.5t-69.5 -169.5q0 -43 26.5 -66.5t69.5 -23.5q48 0 105 26l16 -49l-112 -72q-13 -8 -38 -15t-38 -7q-83 0 -126.5 43.5t-43.5 103.5q0 147 209 318zM461 846q-74 0 -135.5 -68t-79.5 -186q51 0 109 1t129 2.5
t112 2.5q27 0 37 8t10 29q2 83 -49.5 147t-132.5 64z" />
    <glyph glyph-name="Ecaron" unicode="&#x11a;" horiz-adv-x="1163" 
d="M1057 332l61 -8q-35 -197 -71 -324h-988v57q76 6 111.5 12.5t59 29.5t28 55t4.5 100v815q0 50 -1.5 78.5t-9.5 53t-16.5 35t-32.5 19.5t-46.5 12t-69.5 7v57h913l17 -295l-60 -10q-22 104 -65 176q-22 32 -72.5 45t-159.5 13h-155q-47 0 -57.5 -10t-10.5 -56v-465h193
q49 0 78.5 1.5t54.5 8.5t36.5 15t22.5 29t16 40.5t13 59.5h59v-394h-59q-8 41 -13 63.5t-16.5 43t-23 29t-37 15.5t-53 8t-76.5 1h-195v-387q0 -72 10.5 -109t38.5 -57q27 -17 74 -21.5t139 -4.5q116 0 170 14.5t88 54.5q61 71 101 193zM852 1681l31 -51
q-63 -49 -91.5 -71.5t-78 -66t-86.5 -83.5h-45q-78 82 -258 221l30 51q135 -56 250 -125q119 70 248 125z" />
    <glyph glyph-name="ecaron" unicode="&#x11b;" horiz-adv-x="870" 
d="M776 217l33 -43q-59 -75 -129.5 -122.5t-118.5 -62t-86 -14.5q-122 0 -214.5 61.5t-138.5 160t-46 215.5q0 210 135 358q63 71 142.5 110.5t158.5 39.5q125 0 216 -95t91 -217q0 -31 -10 -45t-37 -20q-33 -6 -201.5 -18t-332.5 -17q1 -100 28 -178.5t72 -123.5t97 -68
t108 -23q125 0 233 102zM463 844q-74 0 -133.5 -66t-81.5 -186q168 0 346 6q27 0 38 9.5t11 31.5q2 83 -48 144t-132 61zM651 1382l51 -34q-115 -159 -206 -334h-52q-101 190 -202 334l49 34q105 -102 180 -198q94 116 180 198z" />
    <glyph glyph-name="Gcircumflex" unicode="&#x11c;" horiz-adv-x="1464" 
d="M1417 616v-55q-92 -13 -111.5 -35.5t-19.5 -113.5v-174q0 -129 14 -193q-2 -1 -47.5 -12t-56 -13.5t-52.5 -12t-60.5 -12.5t-56.5 -9.5t-63.5 -9t-58.5 -5t-63 -2.5q-337 0 -544.5 190.5t-207.5 495.5q0 138 43 255t117 199.5t173.5 140t213 85t235.5 27.5q59 0 127 -8
t106 -15.5t99 -21.5t62 -14q14 -168 32 -320l-57 -12q-18 91 -55 154.5t-90.5 98t-115 49.5t-138.5 15q-239 0 -391 -164.5t-152 -443.5q0 -91 21 -180t66.5 -172.5t110.5 -147t161 -101.5t210 -38q107 0 179 37q35 19 50 46t15 87v174q0 41 -1.5 63.5t-10 43.5t-20 30.5
t-39 18t-58.5 12.5t-86 8v55h520zM1100 1466l-33 -51q-105 49 -248 127q-189 -101 -244 -127l-34 51q184 142 258 220h45q80 -84 256 -220z" />
    <glyph glyph-name="gcircumflex" unicode="&#x11d;" horiz-adv-x="958" 
d="M946 897l12 -16q-15 -28 -42 -60.5t-50 -44.5l-116 6q61 -70 61 -182q0 -80 -31 -144t-83 -103.5t-114.5 -60t-129.5 -20.5q-14 0 -105 11q-23 -15 -42 -39t-19 -45q0 -34 32 -57t97 -23q38 0 110 1t105 1q42 0 80 -5.5t78.5 -22t69.5 -42.5t48 -70t19 -102
q0 -76 -42 -150.5t-111.5 -130t-164 -90t-194.5 -34.5q-160 0 -256.5 77t-98.5 173q0 64 50 114q64 64 170 144q-101 32 -152 112q-27 46 -23 86q58 22 106 56.5t75 68.5q-76 32 -128.5 104.5t-52.5 170.5q0 83 34.5 150.5t90 107.5t118 61t124.5 21q104 0 197 -52
q132 5 278 29zM451 858q-71 0 -120.5 -65.5t-49.5 -180.5q0 -121 53 -197.5t139 -76.5q72 2 121 65t49 179q0 123 -52.5 199.5t-139.5 76.5zM496 -23q-73 0 -113 -10t-68 -35q-94 -76 -94 -159t78.5 -139t192.5 -56q141 0 217.5 63.5t76.5 163.5q0 106 -94 146
q-66 26 -196 26zM690 1040l-51 -34q-85 78 -178 198q-95 -117 -182 -198l-50 34q106 148 207 334h51q92 -176 203 -334z" />
    <glyph glyph-name="Gbreve" unicode="&#x11e;" horiz-adv-x="1464" 
d="M1417 616v-55q-92 -13 -111.5 -35.5t-19.5 -113.5v-174q0 -129 14 -193q-2 -1 -47.5 -12t-56 -13.5t-52.5 -12t-60.5 -12.5t-56.5 -9.5t-63.5 -9t-58.5 -5t-63 -2.5q-337 0 -544.5 190.5t-207.5 495.5q0 138 43 255t117 199.5t173.5 140t213 85t235.5 27.5q59 0 127 -8
t106 -15.5t99 -21.5t62 -14q14 -168 32 -320l-57 -12q-18 91 -55 154.5t-90.5 98t-115 49.5t-138.5 15q-239 0 -391 -164.5t-152 -443.5q0 -91 21 -180t66.5 -172.5t110.5 -147t161 -101.5t210 -38q107 0 179 37q35 19 50 46t15 87v174q0 41 -1.5 63.5t-10 43.5t-20 30.5
t-39 18t-58.5 12.5t-86 8v55h520zM981 1683h61q-3 -120 -67.5 -180.5t-173.5 -60.5t-173 60.5t-65 180.5h62q28 -127 176 -127q145 0 180 127z" />
    <glyph glyph-name="gbreve" unicode="&#x11f;" horiz-adv-x="958" 
d="M946 897l12 -16q-15 -28 -42 -60.5t-50 -44.5l-116 6q61 -70 61 -182q0 -80 -31 -144t-83 -103.5t-114.5 -60t-129.5 -20.5q-14 0 -105 11q-23 -15 -42 -39t-19 -45q0 -34 32 -57t97 -23q38 0 110 1t105 1q42 0 80 -5.5t78.5 -22t69.5 -42.5t48 -70t19 -102
q0 -76 -42 -150.5t-111.5 -130t-164 -90t-194.5 -34.5q-160 0 -256.5 77t-98.5 173q0 64 50 114q64 64 170 144q-101 32 -152 112q-27 46 -23 86q58 22 106 56.5t75 68.5q-76 32 -128.5 104.5t-52.5 170.5q0 83 34.5 150.5t90 107.5t118 61t124.5 21q104 0 197 -52
q132 5 278 29zM451 858q-71 0 -120.5 -65.5t-49.5 -180.5q0 -121 53 -197.5t139 -76.5q72 2 121 65t49 179q0 123 -52.5 199.5t-139.5 76.5zM496 -23q-73 0 -113 -10t-68 -35q-94 -76 -94 -159t78.5 -139t192.5 -56q141 0 217.5 63.5t76.5 163.5q0 106 -94 146
q-66 26 -196 26zM625 1327h61q0 -149 -63 -214.5t-166 -65.5q-100 0 -163 65.5t-63 214.5h62q10 -79 54 -120.5t112 -41.5t112 41.5t54 120.5z" />
    <glyph glyph-name="Gdotaccent" unicode="&#x120;" horiz-adv-x="1464" 
d="M1417 616v-55q-92 -13 -111.5 -35.5t-19.5 -113.5v-174q0 -129 14 -193q-2 -1 -47.5 -12t-56 -13.5t-52.5 -12t-60.5 -12.5t-56.5 -9.5t-63.5 -9t-58.5 -5t-63 -2.5q-337 0 -544.5 190.5t-207.5 495.5q0 138 43 255t117 199.5t173.5 140t213 85t235.5 27.5q59 0 127 -8
t106 -15.5t99 -21.5t62 -14q14 -168 32 -320l-57 -12q-18 91 -55 154.5t-90.5 98t-115 49.5t-138.5 15q-239 0 -391 -164.5t-152 -443.5q0 -91 21 -180t66.5 -172.5t110.5 -147t161 -101.5t210 -38q107 0 179 37q35 19 50 46t15 87v174q0 41 -1.5 63.5t-10 43.5t-20 30.5
t-39 18t-58.5 12.5t-86 8v55h520zM817 1657q44 0 74.5 -31.5t30.5 -77.5q0 -43 -30.5 -73.5t-74.5 -30.5t-74 30.5t-30 73.5q0 46 30 77.5t74 31.5z" />
    <glyph glyph-name="gdotaccent" unicode="&#x121;" horiz-adv-x="958" 
d="M946 897l12 -16q-15 -28 -42 -60.5t-50 -44.5l-116 6q61 -70 61 -182q0 -80 -31 -144t-83 -103.5t-114.5 -60t-129.5 -20.5q-14 0 -105 11q-23 -15 -42 -39t-19 -45q0 -34 32 -57t97 -23q38 0 110 1t105 1q42 0 80 -5.5t78.5 -22t69.5 -42.5t48 -70t19 -102
q0 -76 -42 -150.5t-111.5 -130t-164 -90t-194.5 -34.5q-160 0 -256.5 77t-98.5 173q0 64 50 114q64 64 170 144q-101 32 -152 112q-27 46 -23 86q58 22 106 56.5t75 68.5q-76 32 -128.5 104.5t-52.5 170.5q0 83 34.5 150.5t90 107.5t118 61t124.5 21q104 0 197 -52
q132 5 278 29zM451 858q-71 0 -120.5 -65.5t-49.5 -180.5q0 -121 53 -197.5t139 -76.5q72 2 121 65t49 179q0 123 -52.5 199.5t-139.5 76.5zM496 -23q-73 0 -113 -10t-68 -35q-94 -76 -94 -159t78.5 -139t192.5 -56q141 0 217.5 63.5t76.5 163.5q0 106 -94 146
q-66 26 -196 26zM459 1102q-40 0 -71.5 30.5t-31.5 71.5q0 45 31.5 77t73.5 32q43 0 72.5 -31.5t29.5 -77.5q0 -42 -30 -72t-74 -30z" />
    <glyph glyph-name="uni0122" unicode="&#x122;" horiz-adv-x="1464" 
d="M1417 616v-55q-92 -13 -111.5 -35.5t-19.5 -113.5v-174q0 -129 14 -193q-2 -1 -47.5 -12t-56 -13.5t-52.5 -12t-60.5 -12.5t-56.5 -9.5t-63.5 -9t-58.5 -5t-63 -2.5q-337 0 -544.5 190.5t-207.5 495.5q0 138 43 255t117 199.5t173.5 140t213 85t235.5 27.5q59 0 127 -8
t106 -15.5t99 -21.5t62 -14q14 -168 32 -320l-57 -12q-18 91 -55 154.5t-90.5 98t-115 49.5t-138.5 15q-239 0 -391 -164.5t-152 -443.5q0 -91 21 -180t66.5 -172.5t110.5 -147t161 -101.5t210 -38q107 0 179 37q35 19 50 46t15 87v174q0 41 -1.5 63.5t-10 43.5t-20 30.5
t-39 18t-58.5 12.5t-86 8v55h520zM809 -96q59 0 104 -46t45 -116q0 -85 -60 -138t-157 -79l-18 57q62 27 92.5 53.5t30.5 61.5q0 62 -92 84q-31 8 -31 47q0 36 25.5 56t60.5 20z" />
    <glyph glyph-name="uni0123" unicode="&#x123;" horiz-adv-x="958" 
d="M946 897l12 -16q-15 -28 -42 -60.5t-50 -44.5l-116 6q61 -70 61 -182q0 -80 -31 -144t-83 -103.5t-114.5 -60t-129.5 -20.5q-14 0 -105 11q-23 -15 -42 -39t-19 -45q0 -34 32 -57t97 -23q38 0 110 1t105 1q42 0 80 -5.5t78.5 -22t69.5 -42.5t48 -70t19 -102
q0 -76 -42 -150.5t-111.5 -130t-164 -90t-194.5 -34.5q-160 0 -256.5 77t-98.5 173q0 64 50 114q64 64 170 144q-101 32 -152 112q-27 46 -23 86q58 22 106 56.5t75 68.5q-76 32 -128.5 104.5t-52.5 170.5q0 83 34.5 150.5t90 107.5t118 61t124.5 21q104 0 197 -52
q132 5 278 29zM451 858q-71 0 -120.5 -65.5t-49.5 -180.5q0 -121 53 -197.5t139 -76.5q72 2 121 65t49 179q0 123 -52.5 199.5t-139.5 76.5zM496 -23q-73 0 -113 -10t-68 -35q-94 -76 -94 -159t78.5 -139t192.5 -56q141 0 217.5 63.5t76.5 163.5q0 106 -94 146
q-66 26 -196 26zM485 1061q-62 0 -107.5 46.5t-45.5 117.5q0 85 61 138t160 79l16 -56q-123 -53 -123 -116q0 -62 95 -84q28 -7 28 -47q0 -36 -25.5 -57t-58.5 -21z" />
    <glyph glyph-name="Hcircumflex" unicode="&#x124;" horiz-adv-x="1568" 
d="M1493 1331v-57q-47 -4 -72.5 -7t-49.5 -12t-33.5 -19.5t-17.5 -34t-9.5 -50t-1.5 -72.5v-827q0 -47 1.5 -74t9.5 -50t17.5 -33.5t33.5 -19.5t48.5 -12t71.5 -6v-57h-549v57q49 3 75 6t51.5 12t35.5 19.5t19 33.5t10.5 50.5t1.5 73.5v410h-699v-410q0 -46 1.5 -73t9.5 -50
t18 -34t34 -19.5t49.5 -12t72.5 -6.5v-57h-539v57q46 3 70.5 6t48.5 12t33 19.5t17 33.5t9.5 50t1.5 74v827q0 47 -1.5 73.5t-9.5 50t-17.5 33.5t-34 19t-49 12t-72.5 7v57h530v-57q-44 -4 -67.5 -7t-46 -12t-31.5 -19.5t-16.5 -33.5t-9 -50t-1.5 -73v-331h699v331
q0 46 -1.5 73t-9.5 50t-17 33.5t-32.5 19.5t-47.5 12t-69 7v57h535zM1063 1452l-33 -51q-112 49 -248 127q-166 -93 -243 -127l-35 51q188 145 258 219h45q76 -80 256 -219z" />
    <glyph glyph-name="hcircumflex" unicode="&#x125;" horiz-adv-x="1093" 
d="M1051 0h-433v53q91 9 113.5 34.5t22.5 123.5v340q0 252 -201 252q-122 0 -213 -105v-487q0 -99 20.5 -124t110.5 -34v-53h-434v53q51 4 75 9.5t41 23t21 44.5t4 81v977q0 38 -0.5 56t-6 37.5t-12 26.5t-24.5 15t-38.5 10.5t-57.5 5.5v47q130 19 301 72v-688
q62 63 139 106.5t154 43.5q131 0 206.5 -86.5t75.5 -264.5v-358q0 -43 3 -67.5t9.5 -43t24 -27t38.5 -13t61 -7.5v-53zM518 1530l-33 -51q-100 43 -247 127q-162 -91 -246 -127l-33 51q8 6 43 33t47 36.5t41.5 33t46 38.5t39 36.5t41.5 41.5h45q76 -80 256 -219z" />
    <glyph glyph-name="Hbar" unicode="&#x126;" horiz-adv-x="1568" 
d="M1489 967h-180v-703q0 -36 1 -59.5t4.5 -46t8 -35.5t15.5 -25t22.5 -17.5t32.5 -11t42.5 -8t55.5 -4.5v-57h-549v57q48 3 75 6.5t51.5 13t35.5 21.5t19 36.5t10 53t2 76.5v371h-699v-371q0 -48 1.5 -76.5t9.5 -53.5t18 -36.5t33.5 -21t50 -13t72.5 -6.5v-57h-539v57
q45 3 70.5 6.5t48.5 13t33 20.5t17.5 36t9 53.5t1.5 77.5v703h-180v73h180v37q0 47 -1.5 74.5t-9.5 51t-17.5 34t-33.5 19.5t-49.5 12t-72.5 6v57h530v-57q-44 -3 -67.5 -6t-46 -12t-31.5 -19.5t-16.5 -34t-9 -51t-1.5 -74.5v-37h699v37q0 47 -1.5 74.5t-9.5 50.5t-17 33.5
t-32.5 19.5t-47 12t-69.5 7v57h535v-57q-47 -4 -72.5 -7t-49.5 -12t-33.5 -19.5t-17.5 -34t-9.5 -50.5t-1.5 -74v-37h180v-73zM1135 721v246h-699v-246h699z" />
    <glyph glyph-name="hbar" unicode="&#x127;" horiz-adv-x="1091" 
d="M1051 0h-430v53q89 7 111 33.5t22 126.5v340q0 126 -48.5 188t-150.5 62q-61 0 -117.5 -27.5t-97.5 -79.5v-481q0 -54 3.5 -81.5t18.5 -46t38.5 -24.5t70.5 -10v-53h-430v53q63 5 89.5 17.5t37 44t10.5 102.5v881h-141v73h141v107q0 49 -15 62.5t-77 21.5v49
q110 13 254 57v-297h317v-73h-317v-328q60 65 137.5 107t157.5 43q129 5 204.5 -82t75.5 -256v-369q0 -71 10 -101t36 -42t90 -17v-53z" />
    <glyph glyph-name="Itilde" unicode="&#x128;" horiz-adv-x="698" 
d="M621 0h-543v57q47 3 72.5 6.5t49.5 12.5t33.5 19.5t17.5 34.5t9.5 51.5t1.5 74.5v819q0 47 -1.5 74.5t-9.5 51.5t-17.5 34.5t-33.5 19.5t-49.5 12.5t-72.5 6.5v57h543v-57q-47 -3 -72.5 -6.5t-49.5 -12.5t-34 -19.5t-18 -34.5t-9.5 -51.5t-1.5 -74.5v-819
q0 -48 1.5 -75.5t9.5 -51.5t18 -34.5t34 -19.5t49.5 -12t72.5 -6v-57zM244 1614q45 0 127 -39q71 -33 110 -33q29 0 51 21.5t43 66.5l52 -28q-30 -94 -75 -134.5t-93 -40.5q-47 0 -144 46q-58 28 -90 28q-50 0 -96 -90l-49 35q34 89 77 128.5t87 39.5z" />
    <glyph glyph-name="itilde" unicode="&#x129;" horiz-adv-x="548" 
d="M516 0h-448v53q35 3 55.5 6.5t38.5 11.5t26 17.5t14 29.5t7.5 42.5t1.5 60.5v410q0 56 -2.5 81.5t-18 44.5t-37 24.5t-71.5 13.5v49q156 24 291 80v-703q0 -39 1 -61t7 -42t14 -29.5t26 -17.5t38.5 -11.5t56.5 -6.5v-53zM63 1067l-53 33q31 97 75 140.5t89 43.5t119 -39
q76 -39 108 -39q49 0 91 92l51 -28q-55 -185 -162 -185q-47 0 -135 50q-56 30 -94 30q-49 0 -89 -98z" />
    <glyph glyph-name="Imacron" unicode="&#x12a;" horiz-adv-x="698" 
d="M621 0h-543v57q47 3 72.5 6.5t49.5 12.5t33.5 19.5t17.5 34.5t9.5 51.5t1.5 74.5v819q0 47 -1.5 74.5t-9.5 51.5t-17.5 34.5t-33.5 19.5t-49.5 12.5t-72.5 6.5v57h543v-57q-47 -3 -72.5 -6.5t-49.5 -12.5t-34 -19.5t-18 -34.5t-9.5 -51.5t-1.5 -74.5v-819
q0 -48 1.5 -75.5t9.5 -51.5t18 -34.5t34 -19.5t49.5 -12t72.5 -6v-57zM578 1464h-457v107h457v-107z" />
    <glyph glyph-name="imacron" unicode="&#x12b;" horiz-adv-x="548" 
d="M516 0h-448v53q35 3 55.5 6.5t38.5 11.5t26 17.5t14 29.5t7.5 42.5t1.5 60.5v410q0 56 -2.5 81.5t-18 44.5t-37 24.5t-71.5 13.5v49q156 24 291 80v-703q0 -39 1 -61t7 -42t14 -29.5t26 -17.5t38.5 -11.5t56.5 -6.5v-53zM492 1122h-451v113h451v-113z" />
    <glyph glyph-name="Ibreve" unicode="&#x12c;" horiz-adv-x="698" 
d="M621 0h-543v57q47 3 72.5 6.5t49.5 12.5t33.5 19.5t17.5 34.5t9.5 51.5t1.5 74.5v819q0 47 -1.5 74.5t-9.5 51.5t-17.5 34.5t-33.5 19.5t-49.5 12.5t-72.5 6.5v57h543v-57q-47 -3 -72.5 -6.5t-49.5 -12.5t-34 -19.5t-18 -34.5t-9.5 -51.5t-1.5 -74.5v-819
q0 -48 1.5 -75.5t9.5 -51.5t18 -34.5t34 -19.5t49.5 -12t72.5 -6v-57zM528 1665h62q-3 -118 -68 -180t-174 -62t-172.5 61.5t-64.5 180.5h61q28 -125 176 -125q145 0 180 125z" />
    <glyph glyph-name="ibreve" unicode="&#x12d;" horiz-adv-x="548" 
d="M516 0h-448v53q35 3 55.5 6.5t38.5 11.5t26 17.5t14 29.5t7.5 42.5t1.5 60.5v410q0 56 -2.5 81.5t-18 44.5t-37 24.5t-71.5 13.5v49q156 24 291 80v-703q0 -39 1 -61t7 -42t14 -29.5t26 -17.5t38.5 -11.5t56.5 -6.5v-53zM432 1327h62q0 -149 -63.5 -214.5t-166.5 -65.5
q-100 0 -162.5 65.5t-62.5 214.5h61q10 -79 54 -120.5t112 -41.5t112 41.5t54 120.5z" />
    <glyph glyph-name="Iogonek" unicode="&#x12e;" horiz-adv-x="698" 
d="M621 0h-234q-72 -151 -72 -254q0 -54 33.5 -84.5t87.5 -30.5q41 0 101 27l16 -51l-115 -70q-14 -9 -40 -15.5t-40 -6.5q-90 0 -135 48t-45 118q0 20 4 42t8.5 39.5t15.5 42t18 39t23 42t22.5 38t24.5 40t23 36.5h-239v55q46 3 72 6.5t50 13t33.5 20.5t17.5 35.5t9.5 52.5
t1.5 77v809q0 49 -1.5 77t-9 53t-18 36.5t-33.5 21t-49.5 13t-72.5 6.5v55h543v-55q-46 -3 -72.5 -6.5t-50 -13t-33.5 -21t-18 -36.5t-9.5 -53.5t-1.5 -76.5v-809q0 -48 1.5 -76t9.5 -52.5t18 -36t33.5 -21t50 -13t72.5 -6.5v-55z" />
    <glyph glyph-name="iogonek" unicode="&#x12f;" horiz-adv-x="548" 
d="M516 0h-190q-72 -144 -72 -244q0 -59 31.5 -87.5t83.5 -28.5q34 0 92 20l16 -51l-104 -62q-13 -9 -37 -16.5t-37 -7.5q-86 0 -131 44t-45 122q0 110 135 311h-192v53q53 5 77.5 10.5t41.5 24.5t20.5 46.5t3.5 84.5v412q0 56 -2.5 81.5t-18 44.5t-37 24.5t-71.5 13.5v49
q156 24 291 80v-705q0 -57 3.5 -84.5t20.5 -46.5t42 -24.5t79 -10.5v-53zM279 1102q-41 0 -72 30.5t-31 71.5q0 45 31 77t74 32t71.5 -31.5t28.5 -77.5q0 -42 -29 -72t-73 -30z" />
    <glyph glyph-name="Idotaccent" unicode="&#x130;" horiz-adv-x="698" 
d="M621 0h-543v57q47 3 72.5 6.5t49.5 12.5t33.5 19.5t17.5 34.5t9.5 51.5t1.5 74.5v819q0 47 -1.5 74.5t-9.5 51.5t-17.5 34.5t-33.5 19.5t-49.5 12.5t-72.5 6.5v57h543v-57q-47 -3 -72.5 -6.5t-49.5 -12.5t-34 -19.5t-18 -34.5t-9.5 -51.5t-1.5 -74.5v-819
q0 -48 1.5 -75.5t9.5 -51.5t18 -34.5t34 -19.5t49.5 -12t72.5 -6v-57zM350 1651q43 0 74 -31.5t31 -75.5t-31 -74t-74 -30q-44 0 -75 30t-31 74t31 75.5t75 31.5z" />
    <glyph glyph-name="dotlessi" unicode="&#x131;" horiz-adv-x="548" 
d="M516 0h-448v53q35 3 55.5 6.5t38.5 11.5t26 17.5t14 29.5t7.5 42.5t1.5 60.5v410q0 56 -2.5 81.5t-18 44.5t-37 24.5t-71.5 13.5v49q156 24 291 80v-703q0 -39 1 -61t7 -42t14 -29.5t26 -17.5t38.5 -11.5t56.5 -6.5v-53z" />
    <glyph glyph-name="IJ" unicode="&#x132;" horiz-adv-x="1370" 
d="M621 0h-543v57q47 3 72.5 6.5t49.5 12.5t33.5 19.5t17.5 34.5t9.5 51.5t1.5 74.5v819q0 47 -1.5 74.5t-9.5 51.5t-17.5 34.5t-33.5 19.5t-49.5 12.5t-72.5 6.5v57h543v-57q-47 -3 -72.5 -6.5t-49.5 -12.5t-34 -19.5t-18 -34.5t-9.5 -51.5t-1.5 -74.5v-819
q0 -48 1.5 -75.5t9.5 -51.5t18 -34.5t34 -19.5t49.5 -12t72.5 -6v-57zM1319 1331v-57q-44 -3 -68.5 -6.5t-47 -12.5t-32 -20t-17.5 -35t-9.5 -51.5t-1.5 -73.5v-766q0 -200 -38 -318t-138 -210q-102 -92 -189 -119l-26 57q159 79 196 269q23 125 23 389v698q0 46 -1.5 74
t-10 51.5t-18.5 34.5t-33.5 20t-49.5 12.5t-72 6.5v57h533z" />
    <glyph glyph-name="ij" unicode="&#x133;" horiz-adv-x="1069" 
d="M276 1098q-40 0 -71 31.5t-31 72.5q0 45 31.5 76t73.5 31q43 0 72.5 -30.5t29.5 -76.5q0 -42 -30.5 -73t-74.5 -31zM516 0h-450v53q36 3 56 6.5t38 11t26 16.5t14 28.5t7.5 41.5t1.5 60v422q0 96 -18.5 118.5t-110.5 37.5v49q154 24 291 80v-707q0 -104 23 -129.5
t122 -34.5v-53zM799 1098q-41 0 -71 31t-30 73q0 45 30 76t73 31t72.5 -30.5t29.5 -76.5q0 -42 -30 -73t-74 -31zM594 797v47q167 25 299 80v-695q0 -108 -9.5 -180.5t-37.5 -150.5q-48 -136 -123 -247.5t-125 -154.5q-27 -22 -53 -22q-23 0 -48.5 28t-25.5 62q0 38 43 47
q109 26 150 78q33 41 51 147q16 117 16 395v400q0 38 -1 59.5t-7 41t-12.5 28t-25 17t-37 12t-54.5 8.5z" />
    <glyph glyph-name="Jcircumflex" unicode="&#x134;" horiz-adv-x="673" 
d="M621 1331v-57q-65 -5 -95 -11t-51 -29t-25 -56.5t-4 -102.5v-766q0 -200 -38 -318t-138 -210q-101 -91 -190 -119l-27 57q165 82 197 269q22 120 22 389v698q0 70 -4 103t-25.5 56t-53 29t-99.5 11v57h531zM633 1452l-33 -51q-112 49 -248 127q-166 -93 -243 -127l-33 51
q10 8 42.5 33.5t46 36t41.5 33.5t45 38.5t39.5 36.5t41.5 41h45q76 -80 256 -219z" />
    <glyph glyph-name="jcircumflex" unicode="&#x135;" horiz-adv-x="528" 
d="M68 803v41q176 26 305 80v-697q0 -107 -9.5 -179t-37.5 -152q-48 -136 -123 -247.5t-125 -154.5q-31 -22 -53 -22q-24 0 -47 25.5t-23 60.5q0 39 41 47q106 25 147 80q35 44 50 149q18 129 18 397v402q0 39 -1 61t-7.5 42t-13.5 29t-26 17.5t-38.5 12t-56.5 8.5z
M494 1040l-52 -34q-96 89 -178 198q-95 -117 -182 -198l-49 34q111 154 205 334h51q98 -182 205 -334z" />
    <glyph glyph-name="uni0136" unicode="&#x136;" horiz-adv-x="1378" 
d="M1366 0h-315q-71 80 -148 170.5t-194 229.5t-166 196q-33 39 -58 50.5t-53 6.5v-389q0 -48 2 -77t10.5 -53.5t19 -36.5t34.5 -21t50 -12.5t73 -6.5v-57h-533v57q43 3 67.5 6.5t46.5 13t32 21t17.5 36t9 53.5t1.5 77v801q0 50 -1.5 79.5t-9.5 54.5t-17.5 36t-33.5 20.5
t-48 12.5t-70 6v57h528v-57q-44 -3 -68.5 -6.5t-47.5 -13t-33 -21t-17.5 -36t-9.5 -54t-2 -78.5v-358q59 16 143 94q234 226 345 362q46 55 40 76.5t-75 28.5l-45 6v57h491v-57q-117 -11 -176.5 -38t-157.5 -116q-101 -93 -362 -358q107 -132 248.5 -295t232.5 -262
q79 -85 126 -112t124 -36v-57zM741 -45q61 0 106.5 -46t45.5 -116q0 -160 -217 -217l-21 57q125 50 125 115q0 60 -94 82q-29 12 -29 49q0 35 25.5 55.5t58.5 20.5z" />
    <glyph glyph-name="uni0137" unicode="&#x137;" horiz-adv-x="1015" 
d="M1051 0l-281 -4q-42 47 -96.5 112t-130.5 159t-109 134q-35 45 -63 45q-12 0 -33 -6v-227q0 -100 24.5 -125.5t124.5 -34.5v-53h-458v53q44 4 68.5 9.5t42.5 14t25 27.5t10 42.5t3 66.5v969q0 55 -2.5 80.5t-18.5 43.5t-39 23t-75 10v47q117 12 295 72v-964q76 15 129 71
q60 60 145 180q32 47 21 65.5t-82 25.5v53l418 18v-51q-106 -19 -155 -41.5t-109 -79.5q-70 -70 -177 -194q30 -44 146.5 -181.5t171.5 -193.5q56 -59 101.5 -84.5t103.5 -28.5v-53zM539 -68q61 0 106 -44.5t45 -114.5q0 -86 -60 -139.5t-157 -77.5l-18 55q62 27 92.5 53.5
t30.5 61.5q0 62 -93 84q-30 8 -30 49q0 35 25 54t59 19z" />
    <glyph glyph-name="kgreenlandic" unicode="&#x138;" horiz-adv-x="1075" 
d="M1065 0h-279q-31 34 -141 170t-174 219q-26 33 -47.5 38.5t-44.5 -7.5v-201q0 -38 1.5 -60.5t7.5 -42.5t14 -29.5t26 -17t38.5 -10.5t55.5 -6v-53h-446v53q52 4 76.5 9.5t42 24t21 47t3.5 85.5v440q0 101 -22.5 128t-116.5 36v51q141 10 299 52v-447q55 10 102 51
q135 121 211 220q58 74 -24 86l-35 6v53h403v-53q-78 -8 -126 -27.5t-111 -73.5q-82 -67 -232 -217q154 -210 310 -366q58 -58 93 -78t95 -27v-53z" />
    <glyph glyph-name="Lacute" unicode="&#x139;" horiz-adv-x="1101" 
d="M1014 334l61 -12q-36 -189 -74 -322h-927v57q48 3 74.5 6.5t50.5 12.5t34 20t18 35.5t9.5 51.5t1.5 75v819q0 48 -1.5 74.5t-9 50.5t-16.5 34.5t-33 19.5t-48.5 12t-71.5 6v57h534v-57q-46 -3 -70 -6t-48 -12t-33.5 -19.5t-17.5 -34t-9.5 -51t-1.5 -74.5v-809
q0 -84 10 -120.5t37 -51.5q46 -26 197 -26q92 0 144 12.5t85 50.5q63 74 105 201zM653 1548l-4 -16l-381 -131l-24 51q63 41 179 116.5t142 92.5q18 -3 50.5 -46.5t37.5 -66.5z" />
    <glyph glyph-name="lacute" unicode="&#x13a;" horiz-adv-x="518" 
d="M487 0h-456v53q53 5 78 10.5t43 23.5t22 45t4 81v969q0 38 -1 59.5t-7.5 40t-13 26.5t-26 15t-38 9t-55.5 5v49q148 17 303 72v-1245q0 -71 10.5 -100.5t38.5 -41.5t98 -18v-53zM514 1642l-4 -16l-381 -131l-25 51q175 116 322 209q18 -3 49.5 -46t38.5 -67z" />
    <glyph glyph-name="uni013B" unicode="&#x13b;" horiz-adv-x="1101" 
d="M1014 334l61 -12q-36 -189 -74 -322h-927v57q48 3 74.5 6.5t50.5 12.5t34 20t18 35.5t9.5 51.5t1.5 75v819q0 48 -1.5 74.5t-9 50.5t-16.5 34.5t-33 19.5t-48.5 12t-71.5 6v57h534v-57q-46 -3 -70 -6t-48 -12t-33.5 -19.5t-17.5 -34t-9.5 -51t-1.5 -74.5v-809
q0 -84 10 -120.5t37 -51.5q46 -26 197 -26q92 0 144 12.5t85 50.5q63 74 105 201zM598 -72q61 0 106.5 -44.5t45.5 -114.5q0 -86 -60.5 -140t-157.5 -78l-18 56q62 27 92.5 53t30.5 61q0 62 -92 84q-31 8 -31 50q0 35 25 54t59 19z" />
    <glyph glyph-name="uni013C" unicode="&#x13c;" horiz-adv-x="518" 
d="M487 0h-456v53q53 5 78 10.5t43 23.5t22 45t4 81v969q0 38 -1 59.5t-7.5 40t-13 26.5t-26 15t-38 9t-55.5 5v49q148 17 303 72v-1245q0 -71 10.5 -100.5t38.5 -41.5t98 -18v-53zM236 -70q61 0 106 -45.5t45 -115.5q0 -161 -217 -218l-20 58q124 49 124 115q0 59 -94 81
q-30 13 -30 50q0 35 26 55t60 20z" />
    <glyph glyph-name="Lcaron" unicode="&#x13d;" horiz-adv-x="1101" 
d="M1014 334l61 -12q-36 -189 -74 -322h-927v57q48 3 74.5 6.5t50.5 12.5t34 20t18 35.5t9.5 51.5t1.5 75v819q0 48 -1.5 74.5t-9 50.5t-16.5 34.5t-33 19.5t-48.5 12t-71.5 6v57h534v-57q-46 -3 -70 -6t-48 -12t-33.5 -19.5t-17.5 -34t-9.5 -51t-1.5 -74.5v-809
q0 -84 10 -120.5t37 -51.5q46 -26 197 -26q92 0 144 12.5t85 50.5q63 74 105 201zM786 1341q52 0 88.5 -46t36.5 -117q0 -83 -49 -136t-129 -79l-20 57q94 49 94 117q0 57 -66 77q-10 3 -19 17.5t-9 34.5q0 35 21.5 55t51.5 20z" />
    <glyph glyph-name="lcaron" unicode="&#x13e;" horiz-adv-x="518" 
d="M487 0h-456v53q53 5 78 10.5t43 23.5t22 45t4 81v969q0 38 -1 59.5t-7.5 40t-13 26.5t-26 15t-38 9t-55.5 5v49q148 17 303 72v-1245q0 -71 10.5 -100.5t38.5 -41.5t98 -18v-53zM506 1456q52 0 88.5 -45.5t36.5 -116.5q0 -85 -48.5 -138t-127.5 -77l-21 56q92 48 92 116
q0 60 -65 80q-10 3 -18.5 17t-8.5 34q0 35 21.5 54.5t50.5 19.5z" />
    <glyph glyph-name="Ldot" unicode="&#x13f;" horiz-adv-x="1101" 
d="M1014 334l61 -12q-36 -189 -74 -322h-927v57q48 3 74.5 6.5t50.5 12.5t34 20t18 35.5t9.5 51.5t1.5 75v819q0 48 -1.5 74.5t-9 50.5t-16.5 34.5t-33 19.5t-48.5 12t-71.5 6v57h534v-57q-46 -3 -70 -6t-48 -12t-33.5 -19.5t-17.5 -34t-9.5 -51t-1.5 -74.5v-809
q0 -84 10 -120.5t37 -51.5q46 -26 197 -26q92 0 144 12.5t85 50.5q63 74 105 201zM739 831q43 0 74 -31.5t31 -76.5q0 -43 -31 -74t-74 -31q-44 0 -75 31t-31 74q0 46 31 77t75 31z" />
    <glyph glyph-name="ldot" unicode="&#x140;" horiz-adv-x="555" 
d="M537 834q43 0 71.5 -30.5t28.5 -74.5q0 -42 -29 -72t-71 -30q-40 0 -70.5 30t-30.5 72q0 44 30.5 74.5t70.5 30.5zM487 0h-456v53q53 5 78 10.5t43 23.5t22 45t4 81v969q0 38 -1 59.5t-7.5 40t-13 26.5t-26 15t-38 9t-55.5 5v49q148 17 303 72v-1245q0 -71 10.5 -100.5
t38.5 -41.5t98 -18v-53z" />
    <glyph glyph-name="Lslash" unicode="&#x141;" horiz-adv-x="1126" 
d="M1036 338l64 -8q-47 -231 -74 -330h-932v57q48 3 75.5 6.5t52 13.5t35.5 21.5t19 37t9.5 54t1.5 78.5v299l-201 -149v92l201 152v405q0 48 -1.5 76t-9 53t-18 36.5t-33 21t-48.5 13.5t-71 7v57h535v-57q-45 -3 -71 -7t-48.5 -13.5t-32.5 -21t-17.5 -36.5t-9 -53t-1.5 -76
v-283l258 195v-96l-258 -195v-399q0 -93 9.5 -134.5t37.5 -58.5q44 -26 194 -26q96 0 147 12.5t83 50.5q52 58 104 205z" />
    <glyph glyph-name="lslash" unicode="&#x142;" horiz-adv-x="559" 
d="M553 946l-184 -158v-567q0 -57 4 -85.5t22.5 -47.5t44 -24.5t80.5 -10.5v-53h-465v53q44 4 67.5 9t43 14t27 28t11 45t3.5 72v438l-152 -124v94l152 123v442q0 51 -3 75.5t-20.5 41.5t-41.5 22.5t-79 12.5v47q76 9 165.5 30t140.5 41v-583l184 159v-94z" />
    <glyph glyph-name="Nacute" unicode="&#x143;" horiz-adv-x="1521" 
d="M1473 1331v-57q-89 -5 -128 -31t-45 -92q-12 -91 -12 -344v-825h-63l-873 1073h-4v-514q0 -228 12 -346q7 -76 48.5 -104t148.5 -34v-57h-485v57q92 5 132.5 32.5t47.5 100.5q12 126 12 351v450q0 110 -6 139.5t-35 67.5q-30 38 -69.5 54t-112.5 22v57h303l854 -1028h6
v504q0 207 -14 340q-7 68 -50.5 94.5t-150.5 32.5v57h484zM1040 1548l-4 -16l-379 -131l-24 51q51 32 160.5 104.5t160.5 104.5q18 -3 49.5 -46.5t36.5 -66.5z" />
    <glyph glyph-name="nacute" unicode="&#x144;" horiz-adv-x="1120" 
d="M1071 0h-426v53q91 9 113 36.5t22 133.5v342q0 234 -186 234q-102 0 -223 -105v-481q0 -38 1 -59.5t7 -40.5t13 -27.5t24.5 -16t35.5 -10.5t52 -6v-53h-445v53q39 4 60 7t40.5 11t27 16.5t14 27.5t7.5 40t1 58v424q0 53 -2.5 77.5t-18 42.5t-35.5 23.5t-67 14.5v47
q169 31 285 84v-164q28 21 137 96q96 62 170 62q123 0 193.5 -82t70.5 -230v-395q0 -57 2.5 -83t18 -44t37 -23t71.5 -10v-53zM545 1010l-53 26q56 123 137 326q16 7 82 14.5t84 3.5l6 -18z" />
    <glyph glyph-name="uni0145" unicode="&#x145;" horiz-adv-x="1521" 
d="M1473 1331v-57q-89 -5 -128 -31t-45 -92q-12 -91 -12 -344v-825h-63l-873 1073h-4v-514q0 -228 12 -346q7 -76 48.5 -104t148.5 -34v-57h-485v57q92 5 132.5 32.5t47.5 100.5q12 126 12 351v450q0 110 -6 139.5t-35 67.5q-30 38 -69.5 54t-112.5 22v57h303l854 -1028h6
v504q0 207 -14 340q-7 68 -50.5 94.5t-150.5 32.5v57h484zM786 -27q61 0 106.5 -45.5t45.5 -115.5q0 -86 -60 -140t-157 -78l-19 58q123 50 123 112t-92 84q-31 8 -31 50q0 35 25.5 55t58.5 20z" />
    <glyph glyph-name="uni0146" unicode="&#x146;" horiz-adv-x="1120" 
d="M1071 0h-426v53q91 9 113 36.5t22 133.5v342q0 234 -186 234q-102 0 -223 -105v-481q0 -38 1 -59.5t7 -40.5t13 -27.5t24.5 -16t35.5 -10.5t52 -6v-53h-445v53q39 4 60 7t40.5 11t27 16.5t14 27.5t7.5 40t1 58v424q0 53 -2.5 77.5t-18 42.5t-35.5 23.5t-67 14.5v47
q169 31 285 84v-164q28 21 137 96q96 62 170 62q123 0 193.5 -82t70.5 -230v-395q0 -57 2.5 -83t18 -44t37 -23t71.5 -10v-53zM580 -90q60 0 104.5 -45.5t44.5 -116.5q0 -85 -59.5 -138t-155.5 -77l-20 55q61 27 91.5 53.5t30.5 61.5q0 62 -92 84q-30 7 -30 49
q0 35 25.5 54.5t60.5 19.5z" />
    <glyph glyph-name="Ncaron" unicode="&#x147;" horiz-adv-x="1521" 
d="M1473 1331v-57q-89 -5 -128 -31t-45 -92q-12 -91 -12 -344v-825h-63l-873 1073h-4v-514q0 -228 12 -346q7 -76 48.5 -104t148.5 -34v-57h-485v57q92 5 132.5 32.5t47.5 100.5q12 126 12 351v450q0 110 -6 139.5t-35 67.5q-30 38 -69.5 54t-112.5 22v57h303l854 -1028h6
v504q0 207 -14 340q-7 68 -50.5 94.5t-150.5 32.5v57h484zM1014 1651l30 -54q-166 -125 -256 -219h-45q-15 15 -31.5 31t-29.5 28.5t-33.5 29.5t-31 26t-34 27.5t-31.5 24.5t-35 27t-32 25l33 54q145 -65 248 -127q124 71 248 127z" />
    <glyph glyph-name="ncaron" unicode="&#x148;" horiz-adv-x="1120" 
d="M1071 0h-426v53q91 9 113 36.5t22 133.5v342q0 234 -186 234q-102 0 -223 -105v-481q0 -38 1 -59.5t7 -40.5t13 -27.5t24.5 -16t35.5 -10.5t52 -6v-53h-445v53q39 4 60 7t40.5 11t27 16.5t14 27.5t7.5 40t1 58v424q0 53 -2.5 77.5t-18 42.5t-35.5 23.5t-67 14.5v47
q169 31 285 84v-164q28 21 137 96q96 62 170 62q123 0 193.5 -82t70.5 -230v-395q0 -57 2.5 -83t18 -44t37 -23t71.5 -10v-53zM739 1382l49 -34q-102 -142 -206 -334h-50q-95 178 -204 334l51 34q97 -94 178 -198q103 123 182 198z" />
    <glyph glyph-name="napostrophe" unicode="&#x149;" horiz-adv-x="1120" 
d="M111 1458q69 0 125.5 -52.5t56.5 -139.5q0 -91 -74 -152t-176 -86l-16 47q70 28 105.5 64.5t35.5 91.5q0 46 -34.5 76.5t-82.5 38.5q-24 4 -24 36q0 35 27.5 55.5t56.5 20.5zM1071 0h-426v53q91 9 113 36.5t22 133.5v342q0 234 -186 234q-102 0 -223 -105v-481
q0 -38 1 -59.5t7 -40.5t13 -27.5t24.5 -16t35.5 -10.5t52 -6v-53h-445v53q39 4 60 7t40.5 11t27 16.5t14 27.5t7.5 40t1 58v424q0 53 -2.5 77.5t-18 42.5t-35.5 23.5t-67 14.5v47q169 31 285 84v-164q28 21 137 96q96 62 170 62q123 0 193.5 -82t70.5 -230v-395
q0 -57 2.5 -83t18 -44t37 -23t71.5 -10v-53z" />
    <glyph glyph-name="Eng" unicode="&#x14a;" horiz-adv-x="1507" 
d="M1458 1331v-57q-88 -5 -126.5 -30.5t-45.5 -90.5q-12 -126 -12 -356l2 -588q0 -194 -15.5 -313t-60.5 -197q-72 -133 -188 -133q-35 0 -63.5 32.5t-28.5 73.5t28 41q6 0 31.5 -5t48.5 -5q64 0 109.5 71t48.5 244l-832 1031h-4v-500q0 -236 12 -354q9 -77 50 -104.5
t147 -33.5v-57h-487v57q92 5 131.5 32.5t46.5 100.5q14 110 14 359v432q0 112 -6.5 146t-34.5 71q-30 38 -69.5 54t-112.5 22v57h303l840 -1022h6v488q0 217 -14 350q-9 69 -51.5 95t-151.5 32v57h485z" />
    <glyph glyph-name="eng" unicode="&#x14b;" horiz-adv-x="1107" 
d="M369 926v-164q56 42 139 96q91 62 168 62q123 0 193.5 -81.5t70.5 -228.5v-364q0 -178 -33 -297q-37 -125 -110 -215q-45 -61 -95 -93t-90 -32q-29 0 -55.5 31.5t-26.5 66.5q0 41 27 41q11 0 46 -10t56 -10q53 0 78 39q22 38 31.5 103.5t9.5 195.5v495q0 236 -184 236
q-106 0 -225 -107v-475q0 -37 1 -58t6.5 -41t13.5 -28.5t25 -16.5t37.5 -11.5t55.5 -6.5v-53h-451v53q103 9 126.5 34t23.5 128v418q0 38 -0.5 57.5t-6 39t-11 27t-22.5 16.5t-34 13t-51 11v45q166 31 287 84z" />
    <glyph glyph-name="Omacron" unicode="&#x14c;" horiz-adv-x="1529" 
d="M778 1362q130 0 250 -49.5t211.5 -136.5t146 -215.5t54.5 -278.5q0 -162 -54 -297.5t-147 -225.5t-217.5 -140t-265.5 -50q-137 0 -260 52t-212.5 141.5t-141.5 216.5t-52 272q0 111 30 215.5t89 194t140.5 157t192 106t236.5 38.5zM737 1288q-87 0 -165 -37.5
t-139.5 -108t-97.5 -182.5t-36 -251q0 -190 64.5 -342.5t178.5 -238t257 -85.5q87 0 163.5 37t137 107t96 183.5t35.5 256.5q0 158 -39.5 285t-107.5 208t-156.5 124.5t-190.5 43.5zM995 1468h-456v107h456v-107z" />
    <glyph glyph-name="omacron" unicode="&#x14d;" horiz-adv-x="1044" 
d="M524 920q189 0 317 -132.5t128 -324.5q0 -96 -27 -177.5t-71.5 -137.5t-102.5 -96t-120 -58.5t-124 -18.5q-102 0 -188 38.5t-142 102.5t-87 145t-31 167q0 121 43.5 218.5t111.5 155t144 88t149 30.5zM504 852q-100 0 -169 -96t-69 -262q0 -196 78 -323.5t203 -127.5
q104 0 167.5 88.5t63.5 286.5q0 122 -30.5 219t-94 156t-149.5 59zM748 1122h-449v113h449v-113z" />
    <glyph glyph-name="Obreve" unicode="&#x14e;" horiz-adv-x="1529" 
d="M778 1362q130 0 250 -49.5t211.5 -136.5t146 -215.5t54.5 -278.5q0 -162 -54 -297.5t-147 -225.5t-217.5 -140t-265.5 -50q-137 0 -260 52t-212.5 141.5t-141.5 216.5t-52 272q0 111 30 215.5t89 194t140.5 157t192 106t236.5 38.5zM737 1288q-87 0 -165 -37.5
t-139.5 -108t-97.5 -182.5t-36 -251q0 -190 64.5 -342.5t178.5 -238t257 -85.5q87 0 163.5 37t137 107t96 183.5t35.5 256.5q0 158 -39.5 285t-107.5 208t-156.5 124.5t-190.5 43.5zM930 1677h61q-3 -118 -67 -179.5t-172 -61.5q-109 0 -174 61.5t-66 179.5h61
q31 -125 179 -125q147 0 178 125z" />
    <glyph glyph-name="obreve" unicode="&#x14f;" horiz-adv-x="1044" 
d="M524 920q189 0 317 -132.5t128 -324.5q0 -96 -27 -177.5t-71.5 -137.5t-102.5 -96t-120 -58.5t-124 -18.5q-102 0 -188 38.5t-142 102.5t-87 145t-31 167q0 121 43.5 218.5t111.5 155t144 88t149 30.5zM504 852q-100 0 -169 -96t-69 -262q0 -196 78 -323.5t203 -127.5
q104 0 167.5 88.5t63.5 286.5q0 122 -30.5 219t-94 156t-149.5 59zM676 1327h61q0 -149 -63 -214.5t-166 -65.5q-100 0 -162.5 65.5t-62.5 214.5h61q10 -79 54 -120.5t112 -41.5t112 41.5t54 120.5z" />
    <glyph glyph-name="Ohungarumlaut" unicode="&#x150;" horiz-adv-x="1529" 
d="M778 1362q130 0 250 -49.5t211.5 -136.5t146 -215.5t54.5 -278.5q0 -162 -54 -297.5t-147 -225.5t-217.5 -140t-265.5 -50q-137 0 -260 52t-212.5 141.5t-141.5 216.5t-52 272q0 111 30 215.5t89 194t140.5 157t192 106t236.5 38.5zM737 1288q-87 0 -165 -37.5
t-139.5 -108t-97.5 -182.5t-36 -251q0 -190 64.5 -342.5t178.5 -238t257 -85.5q87 0 163.5 37t137 107t96 183.5t35.5 256.5q0 158 -39.5 285t-107.5 208t-156.5 124.5t-190.5 43.5zM1124 1632l-200 -229l-52 29q87 215 103 251q29 3 77 -7t70 -21zM831 1630l-200 -229
l-51 31q22 51 58.5 139.5t45.5 109.5q29 3 77.5 -6.5t69.5 -19.5v-25z" />
    <glyph glyph-name="ohungarumlaut" unicode="&#x151;" horiz-adv-x="1044" 
d="M524 920q189 0 317 -132.5t128 -324.5q0 -96 -27 -177.5t-71.5 -137.5t-102.5 -96t-120 -58.5t-124 -18.5q-102 0 -188 38.5t-142 102.5t-87 145t-31 167q0 121 43.5 218.5t111.5 155t144 88t149 30.5zM504 852q-100 0 -169 -96t-69 -262q0 -196 78 -323.5t203 -127.5
q104 0 167.5 88.5t63.5 286.5q0 122 -30.5 219t-94 156t-149.5 59zM375 1012l-56 18q71 245 93 330q15 7 76 17t81 7l4 -20zM657 1012l-55 18q74 261 92 330q15 7 76.5 17t81.5 7l4 -20z" />
    <glyph glyph-name="OE" unicode="&#x152;" horiz-adv-x="1992" 
d="M1886 330l62 -8q-34 -184 -74 -322h-627q-116 0 -209 -8q-165 -15 -207 -15q-146 0 -269 36.5t-208.5 99.5t-145.5 149t-88 183.5t-28 203.5q0 209 104.5 370.5t281.5 247.5t396 87q43 0 111.5 -6t85.5 -7q117 -10 191 -10h563q6 -150 20 -291l-61 -6q-26 115 -64 170
q-22 31 -71 43.5t-158 12.5h-160q-44 0 -54.5 -10t-10.5 -54v-465h202q46 0 75 1.5t52 9t34 15.5t21 28.5t14 39t11 56.5h62v-389h-62q-6 32 -9.5 47.5t-10 35.5t-12 28t-17 19t-23.5 14.5t-33 7.5t-44 4.5t-58 0.5h-202v-377q0 -80 10.5 -117.5t38.5 -56.5q19 -13 55.5 -19
t64 -6.5t93.5 -0.5q117 0 170 13.5t88 51.5q46 51 100 193zM1094 225v893q0 56 -8 82.5t-29 38.5q-71 43 -205 43q-257 0 -403 -163.5t-148 -442.5q0 -99 18.5 -188t61 -170t105 -140t157 -94t211.5 -35q102 0 168 29q40 21 56 51.5t16 95.5z" />
    <glyph glyph-name="oe" unicode="&#x153;" horiz-adv-x="1576" 
d="M1479 217l30 -45q-78 -106 -170 -151.5t-159 -45.5q-107 0 -194.5 48t-137.5 131q-63 -87 -152.5 -133t-181.5 -46q-99 0 -183.5 39.5t-139 104t-85 144.5t-30.5 163q0 98 29.5 181.5t76 139.5t105.5 96.5t117.5 58.5t111.5 18q114 0 204 -54.5t142 -150.5
q58 90 154 147.5t194 57.5q128 0 221 -94t93 -216q0 -37 -9 -50t-36 -19q-27 -5 -203 -17.5t-348 -17.5q-1 -103 25.5 -181t73.5 -123t102.5 -67t117.5 -22q113 0 232 104zM1159 844q-77 0 -141 -68.5t-78 -189.5q40 1 113 1.5t135.5 1.5t118.5 3q22 0 31.5 11.5t9.5 37.5
q2 87 -51.5 145t-137.5 58zM500 852q-98 0 -165 -97t-67 -261q0 -200 75.5 -324.5t201.5 -124.5q97 0 161 92.5t64 286.5q0 188 -71 308t-199 120z" />
    <glyph glyph-name="Racute" unicode="&#x154;" horiz-adv-x="1271" 
d="M1292 37l-8 -53q-47 0 -72 2q-117 6 -190 46.5t-141 139.5q-25 35 -55.5 82t-50.5 79t-55 90.5t-46 76.5q-28 45 -64 63.5t-112 18.5h-66v-326q0 -47 1.5 -74.5t9.5 -51.5t18 -35t33.5 -19.5t48.5 -12t71 -6.5v-57h-538v57q47 3 72.5 6.5t50 12.5t34 19.5t18 34.5
t10 51.5t1.5 74.5v823q0 47 -1.5 74t-9.5 50.5t-16.5 33.5t-32.5 18.5t-46.5 11.5t-69.5 7v57h508q222 0 328 -69q63 -41 99 -110t36 -159q0 -237 -260 -350q52 -101 182 -297q95 -137 166 -213q67 -75 147 -96zM432 649h98q152 0 224 58q112 85 112 254q0 80 -24.5 140
t-67.5 94.5t-95.5 51.5t-113.5 17q-82 0 -110 -21q-23 -16 -23 -90v-504zM885 1548l-4 -16l-379 -131l-25 51q49 32 160 104t162 105q17 -3 49 -46.5t37 -66.5z" />
    <glyph glyph-name="racute" unicode="&#x155;" horiz-adv-x="759" 
d="M371 702h4q130 218 248 218q50 0 84 -32t34 -71q0 -31 -18 -59t-47 -41q-36 -15 -55 4q-40 43 -86 43q-41 0 -86 -46.5t-78 -129.5v-375q0 -38 1 -58.5t7.5 -40t15.5 -28t30.5 -16.5t46 -11t67.5 -6v-53h-471v53q96 9 118.5 34t22.5 126v424q0 44 -2.5 67.5t-8 42
t-22 26.5t-36 13.5t-58.5 10.5v45q154 25 289 84v-224zM412 1010l-54 26q64 142 138 326q15 7 81.5 14.5t84.5 3.5l6 -18z" />
    <glyph glyph-name="uni0156" unicode="&#x156;" horiz-adv-x="1271" 
d="M1292 37l-8 -53q-47 0 -72 2q-117 6 -190 46.5t-141 139.5q-25 35 -55.5 82t-50.5 79t-55 90.5t-46 76.5q-28 45 -64 63.5t-112 18.5h-66v-326q0 -47 1.5 -74.5t9.5 -51.5t18 -35t33.5 -19.5t48.5 -12t71 -6.5v-57h-538v57q47 3 72.5 6.5t50 12.5t34 19.5t18 34.5
t10 51.5t1.5 74.5v823q0 47 -1.5 74t-9.5 50.5t-16.5 33.5t-32.5 18.5t-46.5 11.5t-69.5 7v57h508q222 0 328 -69q63 -41 99 -110t36 -159q0 -237 -260 -350q52 -101 182 -297q95 -137 166 -213q67 -75 147 -96zM432 649h98q152 0 224 58q112 85 112 254q0 80 -24.5 140
t-67.5 94.5t-95.5 51.5t-113.5 17q-82 0 -110 -21q-23 -16 -23 -90v-504zM698 -45q61 0 106.5 -46t45.5 -116q0 -160 -217 -217l-21 57q63 27 94 53.5t31 61.5q0 32 -26 53t-68 31q-29 8 -29 47q0 36 25 56t59 20z" />
    <glyph glyph-name="uni0157" unicode="&#x157;" horiz-adv-x="759" 
d="M371 702h4q130 218 248 218q50 0 84 -32t34 -71q0 -31 -18 -59t-47 -41q-36 -15 -55 4q-40 43 -86 43q-41 0 -86 -46.5t-78 -129.5v-375q0 -38 1 -58.5t7.5 -40t15.5 -28t30.5 -16.5t46 -11t67.5 -6v-53h-471v53q96 9 118.5 34t22.5 126v424q0 44 -2.5 67.5t-8 42
t-22 26.5t-36 13.5t-58.5 10.5v45q154 25 289 84v-224zM287 -78q59 0 104 -45t45 -115q0 -86 -60 -139.5t-157 -77.5l-18 56q62 27 92.5 53t30.5 61q0 62 -93 84q-30 7 -30 49q0 35 25.5 54.5t60.5 19.5z" />
    <glyph glyph-name="Rcaron" unicode="&#x158;" horiz-adv-x="1271" 
d="M1292 37l-8 -53q-47 0 -72 2q-117 6 -190 46.5t-141 139.5q-25 35 -55.5 82t-50.5 79t-55 90.5t-46 76.5q-28 45 -64 63.5t-112 18.5h-66v-326q0 -47 1.5 -74.5t9.5 -51.5t18 -35t33.5 -19.5t48.5 -12t71 -6.5v-57h-538v57q47 3 72.5 6.5t50 12.5t34 19.5t18 34.5
t10 51.5t1.5 74.5v823q0 47 -1.5 74t-9.5 50.5t-16.5 33.5t-32.5 18.5t-46.5 11.5t-69.5 7v57h508q222 0 328 -69q63 -41 99 -110t36 -159q0 -237 -260 -350q52 -101 182 -297q95 -137 166 -213q67 -75 147 -96zM432 649h98q152 0 224 58q112 85 112 254q0 80 -24.5 140
t-67.5 94.5t-95.5 51.5t-113.5 17q-82 0 -110 -21q-23 -16 -23 -90v-504zM829 1681l31 -53q-166 -125 -256 -219h-45q-78 80 -258 219l31 53q143 -63 250 -127q114 67 247 127z" />
    <glyph glyph-name="rcaron" unicode="&#x159;" horiz-adv-x="759" 
d="M371 702h4q130 218 248 218q50 0 84 -32t34 -71q0 -31 -18 -59t-47 -41q-36 -15 -55 4q-40 43 -86 43q-41 0 -86 -46.5t-78 -129.5v-375q0 -38 1 -58.5t7.5 -40t15.5 -28t30.5 -16.5t46 -11t67.5 -6v-53h-471v53q96 9 118.5 34t22.5 126v424q0 44 -2.5 67.5t-8 42
t-22 26.5t-36 13.5t-58.5 10.5v45q154 25 289 84v-224zM606 1382l49 -34q-107 -149 -204 -334h-52q-95 178 -204 334l51 34q108 -105 178 -198q103 123 182 198z" />
    <glyph glyph-name="Sacute" unicode="&#x15a;" horiz-adv-x="970" 
d="M838 1032l-60 -12q-13 47 -25 79.5t-34 72t-48.5 63.5t-68 40.5t-92.5 16.5q-111 0 -169 -66.5t-58 -158.5q0 -55 16.5 -98t54 -79t79.5 -63.5t110 -62.5q48 -25 71 -37t68 -39t68.5 -47t56.5 -53.5t49 -65.5t28.5 -75t12.5 -91q0 -164 -127 -275.5t-328 -111.5
q-87 0 -200 31q-65 23 -101 43q-24 65 -55 317l59 15q11 -43 27 -83t45 -87t64 -81.5t87.5 -57.5t112.5 -23q115 0 180.5 66.5t65.5 179.5q0 44 -14 82.5t-34.5 66.5t-58 57.5t-71.5 49.5t-88 49q-129 69 -184 112q-154 121 -154 291q0 153 115 259t307 106q111 0 258 -47
q1 -6 35 -283zM780 1565l-4 -17l-379 -131l-24 51q51 32 160.5 104.5t160.5 104.5q17 -3 49 -46t37 -66z" />
    <glyph glyph-name="sacute" unicode="&#x15b;" horiz-adv-x="751" 
d="M655 666l-53 -13q-30 94 -84 148.5t-127 54.5q-58 0 -95.5 -40.5t-37.5 -100.5q0 -63 45.5 -103t128.5 -75q127 -52 192.5 -116t65.5 -163q0 -89 -51 -155t-126.5 -97t-160.5 -31q-72 0 -137.5 22t-97.5 48q-11 22 -22 104.5t-11 137.5l53 10q30 -108 97 -181t155 -73
q59 0 102.5 40t43.5 103q0 64 -40 106.5t-122 80.5q-46 21 -75 36t-67.5 42t-60 53.5t-37.5 65.5t-16 85q0 110 86.5 187.5t224.5 77.5q88 0 182 -35q11 -33 25.5 -105t19.5 -114zM367 1010l-54 26q64 142 138 326q17 7 82 14.5t83 3.5l7 -18z" />
    <glyph glyph-name="Scircumflex" unicode="&#x15c;" horiz-adv-x="970" 
d="M838 1032l-60 -12q-13 47 -25 79.5t-34 72t-48.5 63.5t-68 40.5t-92.5 16.5q-111 0 -169 -66.5t-58 -158.5q0 -55 16.5 -98t54 -79t79.5 -63.5t110 -62.5q48 -25 71 -37t68 -39t68.5 -47t56.5 -53.5t49 -65.5t28.5 -75t12.5 -91q0 -164 -127 -275.5t-328 -111.5
q-87 0 -200 31q-65 23 -101 43q-24 65 -55 317l59 15q11 -43 27 -83t45 -87t64 -81.5t87.5 -57.5t112.5 -23q115 0 180.5 66.5t65.5 179.5q0 44 -14 82.5t-34.5 66.5t-58 57.5t-71.5 49.5t-88 49q-129 69 -184 112q-154 121 -154 291q0 153 115 259t307 106q111 0 258 -47
q1 -6 35 -283zM791 1464l-33 -51q-112 49 -248 127q-162 -91 -244 -127l-35 51q8 6 43 33t47 36.5t41.5 33t46 38.5t39 36.5t41.5 41.5h46q17 -18 33.5 -34.5t38 -35.5t33.5 -29.5t40 -32.5t34.5 -27.5t40 -31.5t36.5 -28z" />
    <glyph glyph-name="scircumflex" unicode="&#x15d;" horiz-adv-x="751" 
d="M655 666l-53 -13q-30 94 -84 148.5t-127 54.5q-58 0 -95.5 -40.5t-37.5 -100.5q0 -63 45.5 -103t128.5 -75q127 -52 192.5 -116t65.5 -163q0 -89 -51 -155t-126.5 -97t-160.5 -31q-72 0 -137.5 22t-97.5 48q-11 22 -22 104.5t-11 137.5l53 10q30 -108 97 -181t155 -73
q59 0 102.5 40t43.5 103q0 64 -40 106.5t-122 80.5q-46 21 -75 36t-67.5 42t-60 53.5t-37.5 65.5t-16 85q0 110 86.5 187.5t224.5 77.5q88 0 182 -35q11 -33 25.5 -105t19.5 -114zM616 1040l-51 -34q-85 78 -178 198q-95 -117 -182 -198l-49 34q102 142 206 334h52
q95 -181 202 -334z" />
    <glyph glyph-name="uni015E" unicode="&#x15e;" horiz-adv-x="976" 
d="M842 1028l-60 -8q-12 45 -24 78.5t-34 72.5t-49 63.5t-68.5 41t-92.5 16.5q-107 0 -166 -64t-59 -155q0 -106 61.5 -171.5t198.5 -133.5q42 -20 69.5 -34.5t68 -38.5t66.5 -46t56 -54t47.5 -65.5t29 -77.5t11.5 -92q0 -140 -88.5 -240.5t-237.5 -131.5l-28 -45
q-17 -27 -14.5 -43t26.5 -41q80 -77 80 -140q0 -62 -63 -116.5t-169 -87.5l-24 53q122 54 125 121q0 35 -49 78q-39 39 -45.5 64t20.5 67l57 75q-12 -4 -36 -4q-103 3 -207 31q-49 16 -107 45q-10 30 -28 133.5t-27 183.5l57 13q12 -43 28 -83t46 -87.5t66.5 -81.5t91 -57
t118.5 -23q110 0 175 66t65 180q0 47 -15 87.5t-35.5 69t-59.5 58t-69.5 48t-82.5 46.5q-132 68 -191 116q-149 119 -149 285q0 152 116 257.5t308 105.5q107 0 254 -47q4 -40 17 -134.5t20 -152.5z" />
    <glyph glyph-name="uni015F" unicode="&#x15f;" horiz-adv-x="749" 
d="M655 668l-53 -17q-30 95 -84.5 150t-126.5 55q-60 0 -96.5 -38.5t-36.5 -98.5t46.5 -102t127.5 -76q128 -55 193 -119.5t65 -163.5q0 -105 -63.5 -173t-163.5 -93l-35 -49q-19 -29 -16.5 -43.5t28.5 -40.5q41 -39 57.5 -69.5t16.5 -65.5q0 -62 -60 -116t-163 -87l-21 55
q116 54 119 117q0 15 -8.5 31t-15 23t-23.5 24q-40 37 -46 62.5t21 62.5l64 81q-10 -2 -33 -2q-70 0 -138 23t-99 51q-10 28 -20.5 109t-10.5 135l55 10q30 -110 98.5 -185t157.5 -75q58 0 101 38t43 103t-40 109.5t-124 83.5q-54 24 -92.5 45.5t-79.5 55t-62.5 78.5
t-21.5 99q0 109 87 187t226 78q88 0 182 -35q12 -35 27 -107.5t18 -109.5z" />
    <glyph glyph-name="Scaron" unicode="&#x160;" horiz-adv-x="970" 
d="M838 1032l-60 -12q-13 47 -25 79.5t-34 72t-48.5 63.5t-68 40.5t-92.5 16.5q-111 0 -169 -66.5t-58 -158.5q0 -55 16.5 -98t54 -79t79.5 -63.5t110 -62.5q48 -25 71 -37t68 -39t68.5 -47t56.5 -53.5t49 -65.5t28.5 -75t12.5 -91q0 -164 -127 -275.5t-328 -111.5
q-87 0 -200 31q-65 23 -101 43q-24 65 -55 317l59 15q11 -43 27 -83t45 -87t64 -81.5t87.5 -57.5t112.5 -23q115 0 180.5 66.5t65.5 179.5q0 44 -14 82.5t-34.5 66.5t-58 57.5t-71.5 49.5t-88 49q-129 69 -184 112q-154 121 -154 291q0 153 115 259t307 106q111 0 258 -47
q1 -6 35 -283zM756 1700l32 -53q-176 -136 -258 -222h-45q-75 81 -258 222l33 53q154 -70 248 -127q124 71 248 127z" />
    <glyph glyph-name="scaron" unicode="&#x161;" horiz-adv-x="751" 
d="M655 666l-53 -13q-30 94 -84 148.5t-127 54.5q-58 0 -95.5 -40.5t-37.5 -100.5q0 -63 45.5 -103t128.5 -75q127 -52 192.5 -116t65.5 -163q0 -89 -51 -155t-126.5 -97t-160.5 -31q-72 0 -137.5 22t-97.5 48q-11 22 -22 104.5t-11 137.5l53 10q30 -108 97 -181t155 -73
q59 0 102.5 40t43.5 103q0 64 -40 106.5t-122 80.5q-46 21 -75 36t-67.5 42t-60 53.5t-37.5 65.5t-16 85q0 110 86.5 187.5t224.5 77.5q88 0 182 -35q11 -33 25.5 -105t19.5 -114zM571 1382l50 -34q-111 -154 -205 -334h-51q-91 172 -205 334l51 34q108 -105 178 -198
q103 123 182 198z" />
    <glyph glyph-name="uni0162" unicode="&#x162;" horiz-adv-x="1263" 
d="M1149 1382h43q0 -124 20 -362l-59 -6q-32 137 -66 182q-26 38 -67.5 51t-153.5 13h-145v-1008q0 -45 1.5 -70.5t10 -49t20.5 -34.5t38 -20.5t57.5 -13.5t83.5 -7v-57h-221l-45 -57q-19 -27 -16.5 -42t28.5 -42q78 -78 78 -142q0 -132 -234 -206l-24 55q120 52 120 123
q0 15 -7.5 30.5t-15 24t-22.5 23.5q-40 38 -45 64t23 67l76 102h-283v57q50 3 80 7t55 13.5t36.5 20.5t19.5 34.5t10 49.5t2 70v1008h-127q-123 0 -170 -13.5t-68 -50.5q-24 -33 -65 -182h-60q21 261 25 368h41q20 -33 43 -42t70 -9h808q40 0 59.5 10t45.5 41z" />
    <glyph glyph-name="uni0163" unicode="&#x163;" horiz-adv-x="624" 
d="M432 -14l-33 -41q-20 -27 -17 -43t28 -41q79 -79 79 -142q0 -64 -62.5 -119t-170.5 -87l-25 53q123 53 123 123q0 33 -47 80q-39 36 -44.5 62t22.5 65l61 81q-162 25 -162 242v596h-141l-8 21l55 59h94v149l133 136l29 -4v-281h232q14 -15 9.5 -42.5t-22.5 -37.5h-219
v-526q0 -59 11 -100.5t30 -61t37.5 -27.5t40.5 -8q55 0 127 35l18 -53l-139 -72q-32 -14 -39 -16z" />
    <glyph glyph-name="Tcaron" unicode="&#x164;" horiz-adv-x="1263" 
d="M1212 1020l-59 -6q-32 137 -66 182q-26 38 -67.5 51t-153.5 13h-145v-1008q0 -45 1.5 -70.5t10 -49t20.5 -34.5t38 -20.5t57.5 -13.5t83.5 -7v-57h-588v57q50 3 80 7t55 13.5t36.5 20.5t19.5 34.5t10 49.5t2 70v1008h-127q-123 0 -170 -13.5t-68 -50.5q-24 -33 -65 -182
h-60q21 261 25 368h41q20 -33 43 -42t70 -9h808q40 0 59.5 10t45.5 41h43q0 -124 20 -362zM881 1681l32 -53q-164 -120 -258 -219h-45q-15 15 -31.5 31t-29.5 28.5t-33.5 29.5t-31 26t-34 27.5t-31.5 24.5t-35 27t-32 25l33 53q145 -65 248 -127q124 71 248 127z" />
    <glyph glyph-name="tcaron" unicode="&#x165;" horiz-adv-x="624" 
d="M610 74l-139 -72q-53 -27 -86 -27q-98 0 -149.5 61.5t-51.5 182.5v596h-141l-8 21l55 59h94v149l133 136l29 -4v-281h232q14 -15 9.5 -42.5t-22.5 -37.5h-219v-526q0 -59 11 -100.5t30 -61t37.5 -27.5t40.5 -8q55 0 127 35zM555 1423q52 0 88.5 -46t36.5 -117
q0 -85 -48.5 -138.5t-127.5 -77.5l-21 56q92 48 92 117q0 59 -65 79q-10 3 -18.5 17.5t-8.5 34.5q0 35 22 55t50 20z" />
    <glyph glyph-name="Tbar" unicode="&#x166;" horiz-adv-x="1255" 
d="M1204 1022l-61 -6q-27 130 -60 180q-27 38 -73.5 51t-161.5 13h-131v-543h305v-80h-305v-379q0 -69 4.5 -102t28 -57t61.5 -31.5t115 -12.5v-55h-586v55q50 3 80 7t55 14t36.5 21.5t19.5 36t10 51.5t2 73v379h-301v80h301v543h-103q-96 0 -148.5 -7t-74.5 -19.5
t-37 -37.5q-24 -39 -61 -180h-62q21 262 25 366h41q22 -34 41.5 -42.5t64.5 -8.5h813q39 0 55.5 9.5t41.5 41.5h45q0 -165 20 -360z" />
    <glyph glyph-name="tbar" unicode="&#x167;" horiz-adv-x="620" 
d="M612 76l-145 -76q-49 -25 -82 -25q-98 0 -149.5 61.5t-51.5 182.5v242h-137v74h137v278h-141l-8 23l57 59h92v149l133 136l29 -4v-281h232q15 -15 11 -42.5t-24 -39.5h-219v-278h207v-74h-207v-172q0 -111 35.5 -154t85.5 -43q57 0 125 35z" />
    <glyph glyph-name="Utilde" unicode="&#x168;" horiz-adv-x="1507" 
d="M1466 1331v-57q-93 -6 -133 -32.5t-47 -88.5q-10 -92 -10 -332v-170q0 -191 -35 -320.5t-121 -219.5q-68 -71 -164 -106.5t-202 -35.5q-201 0 -328 99q-92 71 -136 189t-44 298v512q0 50 -1.5 78.5t-9.5 53.5t-16.5 35.5t-32.5 20t-47.5 12.5t-70.5 7v57h530v-57
q-45 -3 -70 -6t-48 -12t-32.5 -20t-17 -36t-9 -54t-1.5 -79v-467q0 -250 98 -384t287 -134q87 0 153.5 28.5t110.5 79t72 125t39.5 160.5t11.5 191v155q0 228 -14 338q-9 60 -50.5 83.5t-148.5 31.5v57h487zM694 1614q45 0 127 -39q71 -33 111 -33q29 0 51 21.5t43 66.5
l51 -28q-30 -94 -75 -134.5t-93 -40.5q-46 0 -143 46q-58 28 -90 28q-49 0 -98 -90l-50 35q35 90 79 129t87 39z" />
    <glyph glyph-name="utilde" unicode="&#x169;" horiz-adv-x="1087" 
d="M1061 100v-51q-113 -17 -301 -74l-12 13v145q-97 -72 -152 -106q-88 -52 -158 -52q-112 0 -183 75t-71 231v401q0 84 -18.5 105t-106.5 38v47q139 9 293 37q-6 -63 -6 -299v-274q0 -126 50.5 -179t129.5 -53q120 0 222 99v477q0 32 -1 50t-8 35t-15 24.5t-29.5 15t-43 11
t-63.5 9.5v47q199 11 321 37v-684q0 -75 17.5 -96.5t77.5 -24.5zM330 1067l-54 33q31 97 75 140.5t89 43.5t119 -39q76 -39 109 -39q27 0 48 22.5t42 69.5l51 -28q-55 -185 -162 -185q-47 0 -135 50q-56 30 -94 30q-48 0 -88 -98z" />
    <glyph glyph-name="Umacron" unicode="&#x16a;" horiz-adv-x="1507" 
d="M1466 1331v-57q-93 -6 -133 -32.5t-47 -88.5q-10 -92 -10 -332v-170q0 -191 -35 -320.5t-121 -219.5q-68 -71 -164 -106.5t-202 -35.5q-201 0 -328 99q-92 71 -136 189t-44 298v512q0 50 -1.5 78.5t-9.5 53.5t-16.5 35.5t-32.5 20t-47.5 12.5t-70.5 7v57h530v-57
q-45 -3 -70 -6t-48 -12t-32.5 -20t-17 -36t-9 -54t-1.5 -79v-467q0 -250 98 -384t287 -134q87 0 153.5 28.5t110.5 79t72 125t39.5 160.5t11.5 191v155q0 228 -14 338q-9 60 -50.5 83.5t-148.5 31.5v57h487zM1012 1468h-457v107h457v-107z" />
    <glyph glyph-name="umacron" unicode="&#x16b;" horiz-adv-x="1087" 
d="M1061 100v-51q-113 -17 -301 -74l-12 13v145q-97 -72 -152 -106q-88 -52 -158 -52q-112 0 -183 75t-71 231v401q0 84 -18.5 105t-106.5 38v47q139 9 293 37q-6 -63 -6 -299v-274q0 -126 50.5 -179t129.5 -53q120 0 222 99v477q0 32 -1 50t-8 35t-15 24.5t-29.5 15t-43 11
t-63.5 9.5v47q199 11 321 37v-684q0 -75 17.5 -96.5t77.5 -24.5zM768 1122h-449v113h449v-113z" />
    <glyph glyph-name="Ubreve" unicode="&#x16c;" horiz-adv-x="1507" 
d="M1466 1331v-57q-93 -6 -133 -32.5t-47 -88.5q-10 -92 -10 -332v-170q0 -191 -35 -320.5t-121 -219.5q-68 -71 -164 -106.5t-202 -35.5q-201 0 -328 99q-92 71 -136 189t-44 298v512q0 50 -1.5 78.5t-9.5 53.5t-16.5 35.5t-32.5 20t-47.5 12.5t-70.5 7v57h530v-57
q-45 -3 -70 -6t-48 -12t-32.5 -20t-17 -36t-9 -54t-1.5 -79v-467q0 -250 98 -384t287 -134q87 0 153.5 28.5t110.5 79t72 125t39.5 160.5t11.5 191v155q0 228 -14 338q-9 60 -50.5 83.5t-148.5 31.5v57h487zM969 1647h61q-1 -118 -66 -180t-173 -62q-109 0 -174 62t-66 180
h61q31 -125 179 -125q147 0 178 125z" />
    <glyph glyph-name="ubreve" unicode="&#x16d;" horiz-adv-x="1087" 
d="M1061 100v-51q-113 -17 -301 -74l-12 13v145q-97 -72 -152 -106q-88 -52 -158 -52q-112 0 -183 75t-71 231v401q0 84 -18.5 105t-106.5 38v47q139 9 293 37q-6 -63 -6 -299v-274q0 -126 50.5 -179t129.5 -53q120 0 222 99v477q0 32 -1 50t-8 35t-15 24.5t-29.5 15t-43 11
t-63.5 9.5v47q199 11 321 37v-684q0 -75 17.5 -96.5t77.5 -24.5zM698 1327h62q0 -149 -63.5 -214.5t-166.5 -65.5q-100 0 -162.5 65.5t-62.5 214.5h62q10 -79 53.5 -120.5t111.5 -41.5t112 41.5t54 120.5z" />
    <glyph glyph-name="Uring" unicode="&#x16e;" horiz-adv-x="1507" 
d="M1466 1331v-57q-93 -6 -133 -32.5t-47 -88.5q-10 -92 -10 -332v-170q0 -191 -35 -320.5t-121 -219.5q-68 -71 -164 -106.5t-202 -35.5q-201 0 -328 99q-92 71 -136 189t-44 298v512q0 50 -1.5 78.5t-9.5 53.5t-16.5 35.5t-32.5 20t-47.5 12.5t-70.5 7v57h530v-57
q-45 -3 -70 -6t-48 -12t-32.5 -20t-17 -36t-9 -54t-1.5 -79v-467q0 -250 98 -384t287 -134q87 0 153.5 28.5t110.5 79t72 125t39.5 160.5t11.5 191v155q0 228 -14 338q-9 60 -50.5 83.5t-148.5 31.5v57h487zM793 1726q72 0 127 -48t55 -124q0 -78 -55 -126t-127 -48
t-126.5 48t-54.5 126q0 76 55 124t126 48zM793 1661q-40 0 -65.5 -30.5t-25.5 -76.5q0 -47 25.5 -78.5t65.5 -31.5q41 0 65.5 31t24.5 79q0 47 -24.5 77t-65.5 30z" />
    <glyph glyph-name="uring" unicode="&#x16f;" horiz-adv-x="1087" 
d="M1061 100v-51q-113 -17 -301 -74l-12 13v145q-97 -72 -152 -106q-88 -52 -158 -52q-112 0 -183 75t-71 231v401q0 84 -18.5 105t-106.5 38v47q139 9 293 37q-6 -63 -6 -299v-274q0 -126 50.5 -179t129.5 -53q120 0 222 99v477q0 32 -1 50t-8 35t-15 24.5t-29.5 15t-43 11
t-63.5 9.5v47q199 11 321 37v-684q0 -75 17.5 -96.5t77.5 -24.5zM543 1022q-72 0 -127.5 49t-55.5 127q0 76 56 123t129 47q70 0 125 -47t55 -123q0 -78 -55 -127t-127 -49zM545 1085q40 0 65 32.5t25 80.5q0 47 -25 77t-67 30q-38 0 -63 -30.5t-25 -76.5q0 -48 25.5 -80.5
t64.5 -32.5z" />
    <glyph glyph-name="Uhungarumlaut" unicode="&#x170;" horiz-adv-x="1507" 
d="M1466 1331v-57q-93 -6 -133 -32.5t-47 -88.5q-10 -92 -10 -332v-170q0 -191 -35 -320.5t-121 -219.5q-68 -71 -164 -106.5t-202 -35.5q-201 0 -328 99q-92 71 -136 189t-44 298v512q0 50 -1.5 78.5t-9.5 53.5t-16.5 35.5t-32.5 20t-47.5 12.5t-70.5 7v57h530v-57
q-45 -3 -70 -6t-48 -12t-32.5 -20t-17 -36t-9 -54t-1.5 -79v-467q0 -250 98 -384t287 -134q87 0 153.5 28.5t110.5 79t72 125t39.5 160.5t11.5 191v155q0 228 -14 338q-9 60 -50.5 83.5t-148.5 31.5v57h487zM1124 1630l-200 -229l-52 29q30 69 103 251q30 3 77 -6.5
t70 -19.5zM834 1630l-201 -229l-51 29q1 2 104 251q28 3 77.5 -7t67.5 -21z" />
    <glyph glyph-name="uhungarumlaut" unicode="&#x171;" horiz-adv-x="1087" 
d="M1061 100v-51q-113 -17 -301 -74l-12 13v145q-97 -72 -152 -106q-88 -52 -158 -52q-112 0 -183 75t-71 231v401q0 84 -18.5 105t-106.5 38v47q139 9 293 37q-6 -63 -6 -299v-274q0 -126 50.5 -179t129.5 -53q120 0 222 99v477q0 32 -1 50t-8 35t-15 24.5t-29.5 15t-43 11
t-63.5 9.5v47q199 11 321 37v-684q0 -75 17.5 -96.5t77.5 -24.5zM395 1012l-55 18q62 214 92 330q15 7 76.5 17t81.5 7l6 -20zM678 1012l-55 18q74 261 92 330q15 7 76.5 17t80.5 7l7 -20z" />
    <glyph glyph-name="Uogonek" unicode="&#x172;" horiz-adv-x="1501" 
d="M1460 1331v-55q-93 -8 -131.5 -34t-44.5 -89q-14 -100 -14 -336v-164q0 -190 -35 -320t-119 -220q-87 -91 -223 -121q-55 -55 -90 -128.5t-35 -127.5t31.5 -80.5t77.5 -26.5q38 0 98 25l14 -51l-117 -70q-33 -20 -73 -20q-85 0 -127.5 45.5t-42.5 109.5q0 138 180 309
q-238 -18 -383 93q-92 71 -136 189t-44 298v504q0 52 -1.5 81.5t-9.5 55t-16.5 36.5t-33 21t-47.5 13t-70 8v55h530v-55q-45 -3 -70 -6t-47.5 -12.5t-32.5 -21.5t-17.5 -38t-9 -56t-1.5 -81v-457q0 -252 95.5 -386t285.5 -134q106 0 181.5 41.5t119 121t63 183.5t19.5 240
v147q0 224 -15 342q-9 60 -50 85t-146 32v55h487z" />
    <glyph glyph-name="uogonek" unicode="&#x173;" horiz-adv-x="1087" 
d="M1061 100v-51q-51 -8 -80 -14q-84 -62 -146.5 -148.5t-62.5 -158.5q0 -43 29 -68t73 -25q46 0 97 23l16 -51l-117 -68q-13 -9 -35.5 -15.5t-35.5 -6.5q-80 0 -123 43.5t-43 111.5q0 42 20 88t57.5 92t69.5 79t76 73q-17 -5 -48 -14.5t-48 -14.5l-12 13v145
q-97 -72 -152 -106q-88 -52 -158 -52q-112 0 -183 75t-71 231v401q0 84 -18.5 105t-106.5 38v47q139 9 293 37q-6 -63 -6 -299v-274q0 -126 50.5 -179t129.5 -53q120 0 222 99v477q0 32 -1 50t-8 35t-15 24.5t-29.5 15t-43 11t-63.5 9.5v47q199 11 321 37v-684
q0 -75 17.5 -96.5t77.5 -24.5z" />
    <glyph glyph-name="Wcircumflex" unicode="&#x174;" horiz-adv-x="1988" 
d="M1958 1331v-57q-39 -5 -61.5 -9.5t-44.5 -14.5t-34.5 -21.5t-27.5 -35.5t-25.5 -51t-27.5 -73q-98 -273 -338 -1089h-64q-66 192 -200.5 572t-157.5 447h-4q-55 -171 -167.5 -509t-166.5 -510h-64q-70 238 -335 1093q-20 65 -35.5 100.5t-41 57t-52 29t-78.5 14.5v57h497
v-57q-110 -13 -129 -37t7 -102q180 -619 249 -844h5q54 171 166 511t165 509h60q112 -328 358 -1020h4q63 200 135 454t97 365q24 92 0.5 121.5t-142.5 42.5v57h453zM1300 1442l-32 -51q-91 40 -246 127q-23 -12 -77 -41.5t-93.5 -49.5t-75.5 -36l-33 51q180 139 258 219h43
q76 -80 256 -219z" />
    <glyph glyph-name="wcircumflex" unicode="&#x175;" horiz-adv-x="1402" 
d="M1425 895v-51q-74 -12 -102 -39t-61 -115q-55 -146 -246 -713h-58q-36 98 -77.5 204t-92.5 233t-79 200q-25 -66 -75 -193.5t-90.5 -235t-76.5 -208.5h-59q-111 365 -236 732q-28 79 -54 101.5t-100 33.5v51h424v-51q-92 -15 -108.5 -35.5t6.5 -89.5q58 -196 149 -477h5
q48 126 237 643h53q88 -247 246 -649h4q107 335 140 471q20 80 0.5 101.5t-119.5 35.5v51h370zM973 1040l-49 -34q-95 88 -181 198q-88 -112 -180 -198l-49 34q119 170 205 334h51q92 -176 203 -334z" />
    <glyph glyph-name="Ycircumflex" unicode="&#x176;" horiz-adv-x="1298" 
d="M1270 1331v-57q-103 -12 -143 -39t-101 -123q-143 -234 -260 -448q-20 -40 -26.5 -64.5t-6.5 -64.5v-279q0 -47 1.5 -74t10 -51t20 -35t37.5 -20t55 -12.5t81 -6.5v-57h-580v57q51 3 78.5 6.5t54 12.5t37 19.5t19.5 34.5t10.5 51.5t1.5 74.5v272q0 30 -8 52t-35 69
q-208 368 -258 451q-63 107 -100 136t-127 38v57h489v-57q-44 -5 -70 -12t-40 -15t-14.5 -21.5t4.5 -26.5t18 -36q39 -74 82.5 -152t107.5 -188t84 -145q178 316 244 461q37 76 18 99.5t-137 35.5v57h453zM942 1452l-33 -51q-113 48 -247 127q-162 -91 -246 -127l-33 51
q180 139 258 219h43q15 -15 31.5 -31t29.5 -28.5t33.5 -29.5t31 -26t34 -27.5t31.5 -24.5t35 -27t32 -25z" />
    <glyph glyph-name="ycircumflex" unicode="&#x177;" horiz-adv-x="940" 
d="M979 895v-51q-81 -12 -110.5 -36.5t-71.5 -113.5q-22 -48 -53 -122.5t-89.5 -218.5t-113.5 -275q-105 -251 -147.5 -362t-63.5 -193q-13 -49 -66 -49q-43 0 -80 30.5t-37 67.5q0 23 12.5 39t41.5 35q47 30 81 72t70 110q49 91 64 141q14 44 -2 92q-142 404 -236 627
q-33 88 -63.5 116t-112.5 40v51h416v-51q-70 -12 -84.5 -34t6.5 -79l186 -514q102 248 189 510q19 60 -1 82.5t-106 34.5v51h371zM729 1040l-49 -34q-92 85 -180 198q-85 -109 -181 -198l-49 34q119 170 205 334h51q92 -176 203 -334z" />
    <glyph glyph-name="Ydieresis" unicode="&#x178;" horiz-adv-x="1298" 
d="M1270 1331v-57q-103 -12 -143 -39t-101 -123q-143 -234 -260 -448q-20 -40 -26.5 -64.5t-6.5 -64.5v-279q0 -47 1.5 -74t10 -51t20 -35t37.5 -20t55 -12.5t81 -6.5v-57h-580v57q51 3 78.5 6.5t54 12.5t37 19.5t19.5 34.5t10.5 51.5t1.5 74.5v272q0 30 -8 52t-35 69
q-208 368 -258 451q-63 107 -100 136t-127 38v57h489v-57q-44 -5 -70 -12t-40 -15t-14.5 -21.5t4.5 -26.5t18 -36q39 -74 82.5 -152t107.5 -188t84 -145q178 316 244 461q37 76 18 99.5t-137 35.5v57h453zM864 1626q41 0 69 -28.5t28 -71.5q0 -40 -28 -69.5t-69 -29.5
q-40 0 -69 29.5t-29 69.5q0 42 29 71t69 29zM473 1626q42 0 70 -29t28 -73q0 -39 -29 -69t-69 -30q-39 0 -67.5 30t-28.5 69q0 44 28 73t68 29z" />
    <glyph glyph-name="Zacute" unicode="&#x179;" horiz-adv-x="1234" 
d="M1149 360l61 -12q-4 -21 -20 -98.5t-30.5 -145t-24.5 -104.5h-1059l-17 31q63 89 264 372t335.5 474t263.5 380h-357q-110 0 -166.5 -7.5t-80 -21.5t-42.5 -44q-38 -56 -69 -178h-62q24 308 25 376h49q18 -33 39 -42t70 -9h817l14 -28q-579 -824 -846 -1217
q102 -12 334 -12q192 0 270 15t121 61q56 62 111 210zM969 1548l-4 -16l-379 -131l-27 51q49 31 106 68t121.5 79t94.5 62q18 -3 50.5 -46.5t37.5 -66.5z" />
    <glyph glyph-name="zacute" unicode="&#x17a;" horiz-adv-x="860" 
d="M793 283l53 -25q-17 -43 -48.5 -132t-45.5 -126h-676l-13 31q233 344 510 796h-182q-45 0 -75.5 -5t-52.5 -13.5t-40 -28t-31 -40.5t-32 -60l-29 -55l-51 18q42 142 70 297h43q9 -25 32.5 -35t79.5 -10h471l12 -29q-222 -346 -499 -798h203q59 0 97.5 7.5t69.5 29.5
t52.5 49t54.5 79zM436 1010l-53 26q56 123 137 326q16 7 82 14.5t84 3.5l6 -18z" />
    <glyph glyph-name="Zdotaccent" unicode="&#x17b;" horiz-adv-x="1234" 
d="M1149 360l61 -12q-4 -21 -20 -98.5t-30.5 -145t-24.5 -104.5h-1059l-17 31q63 89 264 372t335.5 474t263.5 380h-357q-110 0 -166.5 -7.5t-80 -21.5t-42.5 -44q-38 -56 -69 -178h-62q24 308 25 376h49q18 -33 39 -42t70 -9h817l14 -28q-579 -824 -846 -1217
q102 -12 334 -12q192 0 270 15t121 61q56 62 111 210zM651 1653q44 0 74.5 -31.5t30.5 -77.5q0 -43 -30.5 -73.5t-74.5 -30.5q-43 0 -73.5 30.5t-30.5 73.5q0 46 30.5 77.5t73.5 31.5z" />
    <glyph glyph-name="zdotaccent" unicode="&#x17c;" horiz-adv-x="860" 
d="M793 283l53 -25q-17 -43 -48.5 -132t-45.5 -126h-676l-13 31q233 344 510 796h-182q-45 0 -75.5 -5t-52.5 -13.5t-40 -28t-31 -40.5t-32 -60l-29 -55l-51 18q42 142 70 297h43q9 -25 32.5 -35t79.5 -10h471l12 -29q-222 -346 -499 -798h203q59 0 97.5 7.5t69.5 29.5
t52.5 49t54.5 79zM453 1102q-42 0 -73.5 30.5t-31.5 71.5q0 45 32 77t75 32q41 0 70.5 -31.5t29.5 -77.5q0 -42 -30 -72t-72 -30z" />
    <glyph glyph-name="Zcaron" unicode="&#x17d;" horiz-adv-x="1234" 
d="M1149 360l61 -12q-4 -21 -20 -98.5t-30.5 -145t-24.5 -104.5h-1059l-17 31q63 89 264 372t335.5 474t263.5 380h-357q-110 0 -166.5 -7.5t-80 -21.5t-42.5 -44q-38 -56 -69 -178h-62q24 308 25 376h49q18 -33 39 -42t70 -9h817l14 -28q-579 -824 -846 -1217
q102 -12 334 -12q192 0 270 15t121 61q56 62 111 210zM899 1681l33 -53q-164 -120 -258 -219h-45q-15 15 -31.5 31t-29.5 28.5t-33.5 29.5t-31 26t-34 27.5t-31.5 24.5t-35 27t-32 25l32 53q154 -70 248 -127q124 71 248 127z" />
    <glyph glyph-name="zcaron" unicode="&#x17e;" horiz-adv-x="860" 
d="M793 283l53 -25q-17 -43 -48.5 -132t-45.5 -126h-676l-13 31q233 344 510 796h-182q-45 0 -75.5 -5t-52.5 -13.5t-40 -28t-31 -40.5t-32 -60l-29 -55l-51 18q42 142 70 297h43q9 -25 32.5 -35t79.5 -10h471l12 -29q-222 -346 -499 -798h203q59 0 97.5 7.5t69.5 29.5
t52.5 49t54.5 79zM623 1382l49 -34q-111 -154 -205 -334h-51q-91 172 -205 334l51 34q108 -105 178 -198q99 119 183 198z" />
    <glyph glyph-name="longs" unicode="&#x17f;" horiz-adv-x="546" 
d="M113 895h96v45q0 93 20 168q40 141 158 240q106 95 227 110q105 -3 162 -67q27 -34 15 -70q-8 -23 -48 -55q-26 -16 -53 8q-82 82 -166 82q-67 0 -110 -74q-45 -78 -45 -403v-650q0 -42 1 -66t7.5 -45t13.5 -30t26 -17t38.5 -11t56.5 -7v-53h-438v53q91 9 113 34.5
t22 125.5v602h-146l-6 21z" />
    <glyph glyph-name="florin" unicode="&#x192;" horiz-adv-x="983" 
d="M385 758l16 92q23 127 70 215.5t125 157.5q127 112 231 112q39 0 79 -28t40 -62q0 -28 -27.5 -61.5t-50.5 -20.5q-7 4 -29 18t-37 23t-38 17t-43 8q-50 0 -82 -62q-43 -97 -80 -409h229v-76h-241l-64 -420q-28 -189 -87.5 -294.5t-149.5 -172.5q-104 -78 -178 -78
q-40 0 -76.5 25.5t-36.5 50.5q0 26 27 63.5t45 37.5q5 0 55 -32t86 -32q34 0 54 16.5t32 53.5q28 84 65 389l54 393h-183l3 76h192z" />
    <glyph glyph-name="Ohorn" unicode="&#x1a0;" horiz-adv-x="1529" 
d="M735 1288q-86 0 -164 -37.5t-139 -107.5t-97 -182.5t-36 -251.5q0 -190 64.5 -342.5t178.5 -238t257 -85.5q87 0 163.5 37t137 107t96 183.5t35.5 256.5q0 158 -39.5 285t-107.5 208t-157.5 124.5t-191.5 43.5zM780 1362q217 0 404 -133q37 -21 90 -21q62 0 90.5 26
t28.5 56q0 28 -15.5 40t-68.5 18q-16 4 -31.5 20t-15.5 41q0 37 26 62.5t64 25.5q61 0 98 -41t37 -123q0 -80 -58 -132t-151 -64q162 -187 162 -455q0 -162 -54 -297.5t-147 -225.5t-217.5 -140t-265.5 -50q-137 0 -260 52t-212.5 141.5t-141.5 216.5t-52 272q0 139 48 267
t134.5 227t218.5 158t289 59z" />
    <glyph glyph-name="ohorn" unicode="&#x1a1;" horiz-adv-x="1075" 
d="M502 852q-99 0 -167.5 -96t-68.5 -262q0 -196 78 -323.5t203 -127.5q104 0 167.5 88.5t63.5 286.5q0 188 -73 311t-203 123zM526 920q128 0 248 -74q44 -19 80 -19q53 0 80 18.5t27 41.5t-14.5 34.5t-55.5 18.5q-15 2 -30 16.5t-15 40.5q0 34 26 57t64 23q48 0 80.5 -35
t32.5 -108q0 -72 -50.5 -116.5t-134.5 -55.5q105 -124 105 -299q0 -96 -27 -177.5t-71.5 -137.5t-102.5 -96t-120 -58.5t-124 -18.5q-102 0 -188 38.5t-142 102.5t-87 145t-31 167q0 121 43.5 218.5t111.5 155t144.5 88t150.5 30.5z" />
    <glyph glyph-name="Uhorn" unicode="&#x1af;" horiz-adv-x="1507" 
d="M979 1274v57h373q56 0 88.5 18t32.5 50q0 44 -80 57q-17 4 -33.5 19.5t-16.5 42.5q0 35 26 59.5t63 24.5q60 0 95.5 -39t35.5 -115q0 -71 -40 -113.5t-100 -60.5q-73 -21 -102 -43.5t-35 -79.5q-10 -95 -10 -330v-168q0 -191 -35 -320.5t-121 -219.5q-68 -71 -164 -106.5
t-202 -35.5q-201 0 -328 99q-92 71 -136 189t-44 298v510q0 50 -1.5 78.5t-9.5 53.5t-16.5 35.5t-32.5 20t-47.5 12.5t-70.5 7v57h530v-57q-45 -3 -70 -6t-48 -12t-32.5 -20t-17 -36t-9 -54t-1.5 -79v-465q0 -250 98 -384t287 -134q87 0 153.5 28.5t110.5 79t72 125
t39.5 160.5t11.5 191v153q0 228 -14 338q-9 60 -50.5 83.5t-148.5 31.5z" />
    <glyph glyph-name="uhorn" unicode="&#x1b0;" horiz-adv-x="1120" 
d="M1061 100v-51q-129 -18 -301 -74l-12 13v145q-97 -72 -152 -106q-88 -52 -158 -52q-112 0 -183 75t-71 231v401q0 46 -2.5 66.5t-16 38t-36 24t-70.5 14.5v47q139 9 293 37q-6 -63 -6 -299v-274q0 -126 50.5 -179t129.5 -53q120 0 222 99v477q0 48 -3 69t-20.5 38.5
t-46.5 24t-90 13.5v47q152 5 241 19q150 16 150 74q0 24 -16 36.5t-58 18.5q-15 2 -30 16.5t-15 40.5q0 34 24 58t62 24q52 0 85.5 -35t33.5 -110q0 -70 -46 -114.5t-110 -59.5v-615q0 -75 17.5 -96.5t77.5 -24.5z" />
    <glyph glyph-name="Aringacute" unicode="&#x1fa;" horiz-adv-x="1415" 
d="M1378 0h-501v57q97 12 118.5 32.5t1.5 80.5q-21 62 -112 315h-436q-65 -181 -91 -264q-12 -34 -17.5 -56t-3.5 -40.5t10 -29t27 -18.5t44.5 -12t66.5 -8v-57h-444v57q55 8 81 15t54 30t47 59.5t47 106.5l424 1075l64 19q28 -78 173 -483.5t222 -614.5q26 -70 43.5 -105.5
t44 -59t55 -30.5t82.5 -12v-57zM856 573l-180 523h-4q-98 -260 -193 -523h377zM707 1745q73 0 127.5 -48t54.5 -124t-55 -125t-127 -49q-71 0 -126 49t-55 125t55 124t126 48zM709 1679q-41 0 -67 -30t-26 -76q0 -48 26 -79.5t67 -31.5q39 0 63.5 31.5t24.5 79.5
q0 46 -24.5 76t-63.5 30zM979 1913l-4 -17l-379 -131l-27 52q52 33 322 208q18 -4 50.5 -46.5t37.5 -65.5z" />
    <glyph glyph-name="aringacute" unicode="&#x1fb;" horiz-adv-x="899" 
d="M887 80l-174 -105q-23 0 -51 11.5t-46 27.5q-33 35 -49 92q-12 -8 -49 -33.5t-55.5 -37.5t-47.5 -29t-50.5 -24t-38.5 -7q-106 0 -176 75t-70 175q0 146 166 203q261 87 317 133v37q0 108 -47 169.5t-125 61.5q-59 0 -92 -41q-36 -36 -61 -135q-11 -47 -60 -47
q-30 0 -60 27t-30 61q0 21 15.5 38.5t50.5 43.5q57 41 143 85t164 59q100 0 168 -56q92 -75 92 -250v-381q0 -64 21 -93t51 -29q36 0 73 22zM563 172v320q-6 -3 -184 -86q-64 -30 -94.5 -63.5t-30.5 -86.5q0 -74 45.5 -116t99.5 -42q39 1 86.5 23t77.5 51zM451 1022
q-73 0 -128 49t-55 127q0 76 55.5 123t129.5 47q69 0 123.5 -47t54.5 -123q0 -78 -55 -127t-125 -49zM453 1085q40 0 65 32.5t25 80.5q0 47 -25 77t-67 30q-40 0 -65.5 -30.5t-25.5 -76.5q0 -48 26 -80.5t67 -32.5zM434 1413l-53 29q71 152 139 323q15 7 81.5 15t84.5 4
l6 -19z" />
    <glyph glyph-name="AEacute" unicode="&#x1fc;" horiz-adv-x="1779" 
d="M1677 338l58 -14q-41 -216 -72 -324h-969v57q71 5 105.5 12.5t56.5 33t26.5 61.5t4.5 110v334h-363q-134 -261 -194 -399q-39 -79 -19 -109t135 -45v-55h-469v55q101 14 143 43t101 131q173 307 490 922q35 63 24 84t-88 31l-84 10v55h1051q0 -91 20 -291l-61 -8
q-30 122 -66 168q-28 34 -71 47t-144 13h-170q-45 0 -55 -10.5t-10 -55.5v-508h184q49 0 79 1.5t54.5 9t37 16t23.5 29.5t16 41.5t13 60.5h62v-400h-62q-8 42 -13.5 63.5t-17 43t-23.5 30t-37 15.5t-54 8.5t-78 1.5l-184 2v-340q0 -79 10.5 -116t38.5 -56q28 -16 75 -20
t134 -4q112 0 170 14.5t92 54.5q50 59 100 197zM887 688v561q-26 0 -58 -41q-67 -123 -268 -520h326zM1384 1548l-4 -16l-381 -131l-24 51q63 41 179 116.5t142 92.5q18 -3 50.5 -46.5t37.5 -66.5z" />
    <glyph glyph-name="aeacute" unicode="&#x1fd;" horiz-adv-x="1374" 
d="M1278 215l35 -41q-43 -57 -94 -99t-97 -62t-81 -29t-62 -9q-110 0 -194.5 48.5t-135.5 134.5l-71 -56q-68 -52 -137.5 -89.5t-110.5 -37.5q-108 0 -178 75.5t-70 170.5q0 78 39 127t123 78q9 3 43.5 15t49 17t47 16.5t49.5 18t43.5 17.5t43 18.5t34 17t28.5 17.5v47
q0 96 -53 157.5t-128 61.5q-64 0 -96 -47q-27 -29 -57 -131q-13 -49 -55 -49q-27 0 -61 28t-34 58q0 45 64 88q52 38 141 82t168 62q93 0 152 -43q58 -42 84 -111q61 70 141.5 112.5t159.5 43.5q129 0 221 -95t94 -217q0 -35 -9.5 -50t-37.5 -21q-28 -5 -198.5 -16.5
t-344.5 -16.5q-1 -99 25.5 -176.5t72.5 -123.5t102 -69.5t118 -23.5q119 0 227 102zM961 844q-76 0 -140 -67.5t-78 -188.5q121 0 359 4q24 0 33.5 10t9.5 37q2 84 -48 144.5t-136 60.5zM406 104q126 0 215 115q-41 87 -41 273q-54 -25 -201 -86q-66 -27 -94.5 -59.5
t-28.5 -86.5q0 -72 45 -114t105 -42zM686 1010l-53 26q73 161 139 326q15 7 81.5 14.5t84.5 3.5l6 -18z" />
    <glyph glyph-name="Oslashacute" unicode="&#x1fe;" horiz-adv-x="1533" 
d="M1296 1380l-102 -153q118 -95 189 -235.5t71 -305.5q0 -161 -54 -296.5t-147 -227t-219.5 -142.5t-269.5 -51q-196 0 -352 103l-117 -164l-53 49l108 158q-115 96 -181.5 234.5t-66.5 303.5q0 110 31 214.5t91.5 194t143.5 156.5t194.5 105.5t236.5 38.5q186 0 331 -94
l105 153zM442 252l617 907q-120 129 -307 129q-89 0 -168 -37.5t-141.5 -108t-99 -183.5t-36.5 -254q0 -133 36 -251.5t99 -201.5zM1106 1098l-614 -910q56 -71 136 -108t171 -37q112 0 200 46t141.5 126.5t81 184.5t27.5 225q0 276 -143 473zM1032 1559l-4 -17l-381 -131
l-24 51q63 41 179 116.5t142 92.5q18 -4 50.5 -46.5t37.5 -65.5z" />
    <glyph glyph-name="oslashacute" unicode="&#x1ff;" horiz-adv-x="1050" 
d="M885 930l-74 -109q77 -64 120.5 -157t43.5 -199q0 -117 -40 -212.5t-105 -154.5t-142.5 -91t-157.5 -32q-129 0 -235 64l-82 -113l-51 45l78 107q-77 66 -120.5 159.5t-43.5 192.5q0 97 29 179.5t76.5 138.5t108 96t122 58t120.5 18q119 0 224 -60l73 107zM322 205
l368 557q-30 41 -78 65.5t-102 24.5q-107 0 -179.5 -99.5t-72.5 -275.5q0 -163 64 -272zM731 698l-366 -555q65 -100 184 -100q105 0 174.5 97.5t69.5 297.5q0 148 -62 260zM502 1010l-53 26q56 123 137 326q16 7 82 14.5t84 3.5l6 -18z" />
    <glyph glyph-name="uni0218" unicode="&#x218;" horiz-adv-x="970" 
d="M838 1032l-60 -12q-13 47 -25 79.5t-34 72t-48.5 63.5t-68 40.5t-92.5 16.5q-111 0 -169 -66.5t-58 -158.5q0 -55 16.5 -98t54 -79t79.5 -63.5t110 -62.5q48 -25 71 -37t68 -39t68.5 -47t56.5 -53.5t49 -65.5t28.5 -75t12.5 -91q0 -164 -127 -275.5t-328 -111.5
q-87 0 -200 31q-65 23 -101 43q-24 65 -55 317l59 15q11 -43 27 -83t45 -87t64 -81.5t87.5 -57.5t112.5 -23q115 0 180.5 66.5t65.5 179.5q0 44 -14 82.5t-34.5 66.5t-58 57.5t-71.5 49.5t-88 49q-129 69 -184 112q-154 121 -154 291q0 153 115 259t307 106q111 0 258 -47
q1 -6 35 -283zM479 -109q61 0 106.5 -45t45.5 -116q0 -85 -60 -138t-157 -77l-19 55q62 27 92.5 53.5t30.5 61.5q0 61 -92 84q-31 8 -31 49q0 35 25 54t59 19z" />
    <glyph glyph-name="uni0219" unicode="&#x219;" horiz-adv-x="751" 
d="M655 666l-53 -13q-30 94 -84 148.5t-127 54.5q-58 0 -95.5 -40.5t-37.5 -100.5q0 -63 45.5 -103t128.5 -75q127 -52 192.5 -116t65.5 -163q0 -89 -51 -155t-126.5 -97t-160.5 -31q-72 0 -137.5 22t-97.5 48q-11 22 -22 104.5t-11 137.5l53 10q30 -108 97 -181t155 -73
q59 0 102.5 40t43.5 103q0 64 -40 106.5t-122 80.5q-46 21 -75 36t-67.5 42t-60 53.5t-37.5 65.5t-16 85q0 110 86.5 187.5t224.5 77.5q88 0 182 -35q11 -33 25.5 -105t19.5 -114zM375 -88q61 0 106 -46t45 -116q0 -86 -60 -139.5t-157 -77.5l-18 55q123 53 123 115
q0 61 -92 84q-31 8 -31 49q0 35 25.5 55.5t58.5 20.5z" />
    <glyph glyph-name="uni021A" unicode="&#x21a;" horiz-adv-x="1263" 
d="M1212 1020l-59 -6q-32 137 -66 182q-26 38 -67.5 51t-153.5 13h-145v-1008q0 -45 1.5 -70.5t10 -49t20.5 -34.5t38 -20.5t57.5 -13.5t83.5 -7v-57h-588v57q50 3 80 7t55 13.5t36.5 20.5t19.5 34.5t10 49.5t2 70v1008h-127q-123 0 -170 -13.5t-68 -50.5q-24 -33 -65 -182
h-60q21 261 25 368h41q20 -33 43 -42t70 -9h808q40 0 59.5 10t45.5 41h43q0 -124 20 -362zM616 -76q61 0 105.5 -45.5t44.5 -116.5q0 -85 -59.5 -138t-155.5 -77l-21 56q62 26 92.5 52.5t30.5 61.5q0 62 -92 84q-31 8 -31 49q0 35 25.5 54.5t60.5 19.5z" />
    <glyph glyph-name="uni021B" unicode="&#x21b;" horiz-adv-x="624" 
d="M610 74l-139 -72q-53 -27 -86 -27q-98 0 -149.5 61.5t-51.5 182.5v596h-141l-8 21l55 59h94v149l133 136l29 -4v-281h232q14 -15 9.5 -42.5t-22.5 -37.5h-219v-526q0 -59 11 -100.5t30 -61t37.5 -27.5t40.5 -8q55 0 127 35zM342 -96q61 0 106.5 -46t45.5 -116
q0 -159 -218 -217l-20 57q125 50 125 115q0 60 -94 82q-31 13 -31 49q0 35 25.5 55.5t60.5 20.5z" />
    <glyph glyph-name="uni021C" unicode="&#x21c;" horiz-adv-x="1060" 
d="M285 551l-19 63q108 42 179.5 80t128.5 87.5t83.5 111.5t26.5 141q0 116 -67 185t-166 69q-117 0 -185 -74.5t-112 -224.5l-62 15q39 219 47 284q39 9 108 30.5t126 32.5t125 11q172 0 275.5 -82t103.5 -215q0 -96 -62.5 -171t-171.5 -149v-6q153 -29 246.5 -125
t93.5 -241q0 -121 -62.5 -229t-169.5 -187t-244.5 -133t-291.5 -76l-127 88l12 43q101 -18 170 -18q225 0 369.5 124.5t144.5 323.5q0 76 -24.5 136t-64.5 94t-86.5 51.5t-94.5 17.5q-74 0 -229 -57z" />
    <glyph glyph-name="uni021D" unicode="&#x21d;" horiz-adv-x="788" 
d="M166 221l-23 60q172 76 246 150t74 183q0 86 -47 135.5t-121 49.5q-106 0 -234 -125l-38 45q87 102 164.5 151.5t170.5 49.5q122 0 200.5 -69.5t78.5 -184.5q0 -108 -90 -195q-36 -36 -88 -72v-4q121 -27 194.5 -114.5t73.5 -212.5q0 -85 -34 -164t-92.5 -140.5
t-137 -111.5t-167.5 -83t-185 -50l-105 75l10 41q78 -12 121 -12q181 0 295.5 107.5t114.5 281.5q0 119 -65 187.5t-146 68.5q-63 0 -170 -47z" />
    <glyph glyph-name="uni0232" unicode="&#x232;" horiz-adv-x="1298" 
d="M1270 1331v-57q-103 -12 -143 -39t-101 -123q-143 -234 -260 -448q-20 -40 -26.5 -64.5t-6.5 -64.5v-279q0 -47 1.5 -74t10 -51t20 -35t37.5 -20t55 -12.5t81 -6.5v-57h-580v57q51 3 78.5 6.5t54 12.5t37 19.5t19.5 34.5t10.5 51.5t1.5 74.5v272q0 30 -8 52t-35 69
q-208 368 -258 451q-63 107 -100 136t-127 38v57h489v-57q-44 -5 -70 -12t-40 -15t-14.5 -21.5t4.5 -26.5t18 -36q39 -74 82.5 -152t107.5 -188t84 -145q178 316 244 461q37 76 18 99.5t-137 35.5v57h453zM907 1468h-456v107h456v-107z" />
    <glyph glyph-name="uni0233" unicode="&#x233;" horiz-adv-x="940" 
d="M979 895v-51q-81 -12 -110.5 -36.5t-71.5 -113.5q-22 -48 -53 -122.5t-89.5 -218.5t-113.5 -275q-105 -251 -147.5 -362t-63.5 -193q-13 -49 -66 -49q-43 0 -80 30.5t-37 67.5q0 23 12.5 39t41.5 35q47 30 81 72t70 110q49 91 64 141q14 44 -2 92q-142 404 -236 627
q-33 88 -63.5 116t-112.5 40v51h416v-51q-70 -12 -84.5 -34t6.5 -79l186 -514q102 248 189 510q19 60 -1 82.5t-106 34.5v51h371zM735 1122h-448v113h448v-113z" />
    <glyph glyph-name="uni0237" unicode="&#x237;" horiz-adv-x="524" 
d="M70 797v47q167 25 299 80v-695q0 -108 -9.5 -180.5t-37.5 -150.5q-46 -135 -121.5 -246.5t-126.5 -155.5q-25 -22 -51 -22q-24 0 -49 27.5t-25 62.5q0 39 43 47q109 27 147 78q37 46 51 147q19 139 19 395v400q0 38 -1 59.5t-7 41t-13.5 28t-25.5 17t-37 12t-55 8.5z" />
    <glyph glyph-name="circumflex" unicode="&#x2c6;" 
d="M639 1040l-49 -34q-92 85 -180 198q-85 -109 -181 -198l-49 34q119 170 205 334h51q92 -176 203 -334z" />
    <glyph glyph-name="caron" unicode="&#x2c7;" 
d="M590 1382l49 -34q-111 -154 -205 -334h-51q-91 172 -205 334l51 34q112 -109 179 -198q103 123 182 198z" />
    <glyph glyph-name="uni02C9" unicode="&#x2c9;" 
d="M635 1122h-449v113h449v-113z" />
    <glyph glyph-name="breve" unicode="&#x2d8;" 
d="M575 1327h62q0 -149 -63 -214.5t-166 -65.5q-100 0 -163 65.5t-63 214.5h62q10 -79 54 -120.5t112 -41.5t111.5 41.5t53.5 120.5z" />
    <glyph glyph-name="dotaccent" unicode="&#x2d9;" 
d="M410 1102q-41 0 -72 30.5t-31 71.5q0 45 31 77t74 32t71.5 -31.5t28.5 -77.5q0 -42 -29 -72t-73 -30z" />
    <glyph glyph-name="ring" unicode="&#x2da;" 
d="M410 1022q-72 0 -127.5 49t-55.5 127q0 76 56 123t129 47q70 0 125 -47t55 -123q0 -78 -55 -127t-127 -49zM412 1085q40 0 65 32.5t25 80.5q0 47 -25 77t-67 30q-38 0 -64.5 -30.5t-26.5 -76.5q0 -47 26.5 -80t66.5 -33z" />
    <glyph glyph-name="ogonek" unicode="&#x2db;" 
d="M606 -360l-104 -60q-27 -16 -66 -16q-81 0 -124.5 46t-43.5 105q0 20 3 40.5t12 45t13.5 38.5t21 45t20.5 38.5t25 43.5t22 38h76q-62 -137 -62 -225q0 -52 29.5 -79.5t75.5 -27.5q37 0 86 17z" />
    <glyph glyph-name="tilde" unicode="&#x2dc;" 
d="M197 1067l-54 33q31 97 75 140.5t89 43.5t119 -39q76 -39 109 -39q27 0 48 22.5t42 69.5l51 -28q-56 -185 -162 -185q-47 0 -135 50q-56 30 -94 30q-48 0 -88 -98z" />
    <glyph glyph-name="hungarumlaut" unicode="&#x2dd;" 
d="M276 1012l-57 18q85 292 92 330q15 7 77 17t81 7l6 -20zM559 1012l-57 18q88 310 92 330q15 7 77 17t81 7l6 -20z" />
    <glyph glyph-name="uni0374" unicode="&#x374;" horiz-adv-x="471" 
d="M414 1319l4 -29q-149 -287 -244 -461l-53 11q44 161 106 491q22 14 93.5 7.5t93.5 -19.5z" />
    <glyph glyph-name="uni0375" unicode="&#x375;" horiz-adv-x="471" 
d="M342 246l4 -29q-164 -315 -246 -461l-53 11q61 236 109 491q21 14 91.5 7.5t94.5 -19.5z" />
    <glyph glyph-name="uni037E" unicode="&#x37e;" horiz-adv-x="471" 
d="M242 543q-56 0 -92.5 38.5t-36.5 100.5q0 57 37 96t92 39q57 0 94 -39t37 -96q0 -62 -36.5 -100.5t-94.5 -38.5zM84 -248l-55 15q25 90 58.5 248t49.5 243q24 14 95.5 7.5t93.5 -19.5l4 -29q-19 -36 -58.5 -113t-63 -122.5t-58.5 -110.5t-66 -119z" />
    <glyph glyph-name="tonos" unicode="&#x384;" horiz-adv-x="722" 
d="M532 1364l-137 -346l-57 2q3 35 11 110t14 135.5t6 88.5q13 13 74 23t81 5z" />
    <glyph glyph-name="dieresistonos" unicode="&#x385;" 
d="M633 1081q-43 0 -68.5 25.5t-25.5 67.5q0 41 26 68.5t68 27.5q38 0 63 -28t25 -68q0 -41 -25 -67t-63 -26zM516 1384l-98 -354l-53 -4q-7 191 -7 352q18 7 78 17t74 8zM190 1081q-40 0 -66 26t-26 67q0 40 26.5 68t65.5 28q38 0 64.5 -28t26.5 -68q0 -41 -26 -67t-65 -26
z" />
    <glyph glyph-name="Alphatonos" unicode="&#x386;" horiz-adv-x="1415" 
d="M1378 0h-501v57q97 12 118.5 32.5t1.5 80.5q-21 62 -112 315h-436q-65 -181 -91 -264q-12 -34 -17.5 -56t-3.5 -40.5t10 -29t27 -18.5t44.5 -12t66.5 -8v-57h-444v57q55 8 81 15t54 30t47 59.5t47 106.5l424 1075l64 19q28 -78 173 -483.5t222 -614.5q26 -70 43.5 -105.5
t44 -59t55 -30.5t82.5 -12v-57zM856 573l-180 523h-4q-98 -260 -193 -523h377zM426 1425l-137 -346l-58 2q32 309 33 334q11 13 72.5 23.5t81.5 5.5z" />
    <glyph glyph-name="anoteleia" unicode="&#x387;" horiz-adv-x="471" 
d="M236 406q-58 0 -96 38.5t-38 100.5q0 57 38.5 96t95.5 39t95 -39t38 -96q0 -62 -37.5 -100.5t-95.5 -38.5z" />
    <glyph glyph-name="Epsilontonos" unicode="&#x388;" horiz-adv-x="1163" 
d="M1057 332l61 -8q-35 -197 -71 -324h-988v57q76 6 111.5 12.5t59 29.5t28 55t4.5 100v815q0 50 -1.5 78.5t-9.5 53t-16.5 35t-32.5 19.5t-46.5 12t-69.5 7v57h913l17 -295l-60 -10q-22 104 -65 176q-22 32 -72.5 45t-159.5 13h-155q-47 0 -57.5 -10t-10.5 -56v-465h193
q49 0 78.5 1.5t54.5 8.5t36.5 15t22.5 29t16 40.5t13 59.5h59v-394h-59q-8 41 -13 63.5t-16.5 43t-23 29t-37 15.5t-53 8t-76.5 1h-195v-387q0 -72 10.5 -109t38.5 -57q27 -17 74 -21.5t139 -4.5q116 0 170 14.5t88 54.5q61 71 101 193zM8 1425l-137 -346l-57 2
q31 295 32 334q11 13 72.5 23.5t81.5 5.5z" />
    <glyph glyph-name="Etatonos" unicode="&#x389;" horiz-adv-x="1568" 
d="M1493 1331v-57q-47 -4 -72.5 -7t-49.5 -12t-33.5 -19.5t-17.5 -34t-9.5 -50t-1.5 -72.5v-827q0 -47 1.5 -74t9.5 -50t17.5 -33.5t33.5 -19.5t48.5 -12t71.5 -6v-57h-549v57q49 3 75 6t51.5 12t35.5 19.5t19 33.5t10.5 50.5t1.5 73.5v410h-699v-410q0 -46 1.5 -73t9.5 -50
t18 -34t34 -19.5t49.5 -12t72.5 -6.5v-57h-539v57q46 3 70.5 6t48.5 12t33 19.5t17 33.5t9.5 50t1.5 74v827q0 47 -1.5 73.5t-9.5 50t-17.5 33.5t-34 19t-49 12t-72.5 7v57h530v-57q-44 -4 -67.5 -7t-46 -12t-31.5 -19.5t-16.5 -33.5t-9 -50t-1.5 -73v-331h699v331
q0 46 -1.5 73t-9.5 50t-17 33.5t-32.5 19.5t-47.5 12t-69 7v57h535zM-6 1425l-137 -346l-58 2q32 309 33 334q11 13 72.5 23.5t81.5 5.5z" />
    <glyph glyph-name="Iotatonos" unicode="&#x38a;" horiz-adv-x="698" 
d="M621 0h-543v57q47 3 72.5 6.5t49.5 12.5t33.5 19.5t17.5 34.5t9.5 51.5t1.5 74.5v819q0 47 -1.5 74.5t-9.5 51.5t-17.5 34.5t-33.5 19.5t-49.5 12.5t-72.5 6.5v57h543v-57q-47 -3 -72.5 -6.5t-49.5 -12.5t-34 -19.5t-18 -34.5t-9.5 -51.5t-1.5 -74.5v-819
q0 -48 1.5 -75.5t9.5 -51.5t18 -34.5t34 -19.5t49.5 -12t72.5 -6v-57zM-8 1425l-137 -346l-56 2q3 31 16.5 164.5t14.5 169.5q11 13 73.5 23.5t82.5 5.5z" />
    <glyph glyph-name="Omicrontonos" unicode="&#x38c;" horiz-adv-x="1529" 
d="M778 1362q130 0 250 -49.5t211.5 -136.5t146 -215.5t54.5 -278.5q0 -162 -54 -297.5t-147 -225.5t-217.5 -140t-265.5 -50q-137 0 -260 52t-212.5 141.5t-141.5 216.5t-52 272q0 111 30 215.5t89 194t140.5 157t192 106t236.5 38.5zM737 1288q-87 0 -165 -37.5
t-139.5 -108t-97.5 -182.5t-36 -251q0 -190 64.5 -342.5t178.5 -238t257 -85.5q87 0 163.5 37t137 107t96 183.5t35.5 256.5q0 158 -39.5 285t-107.5 208t-156.5 124.5t-190.5 43.5zM143 1405l-137 -346l-57 2q32 309 33 334q11 13 72 23t81 5z" />
    <glyph glyph-name="Upsilontonos" unicode="&#x38e;" horiz-adv-x="1341" 
d="M958 0h-581v55q75 5 111 11.5t59.5 29.5t28 55t4.5 99v160q0 171 -24.5 302t-84.5 255q-128 278 -381 278q-51 0 -78 -6l-10 53q52 29 121.5 49.5t128.5 20.5q130 0 213.5 -81.5t140.5 -225.5q67 -156 90 -422h11q43 213 120 368q69 157 175 259t223 102q31 0 58 -24
t44 -58l-10 -31q-7 0 -16 1t-13 1q-84 0 -176.5 -63t-167.5 -182q-91 -140 -140.5 -298.5t-49.5 -310.5v-147q0 -45 2 -71t10 -49.5t19.5 -34.5t37 -20.5t55.5 -13t80 -6.5v-55zM-70 1425l-137 -346l-57 2q3 31 16.5 164.5t14.5 169.5q11 13 73 23.5t82 5.5z" />
    <glyph glyph-name="Omegatonos" unicode="&#x38f;" horiz-adv-x="1550" 
d="M1473 299l-37 -299h-500l-8 37q5 8 41 62t59 91t59.5 108t58.5 133.5t39 146.5t17 165q0 248 -113.5 398.5t-306.5 150.5q-194 0 -305.5 -148.5t-111.5 -408.5q0 -90 21.5 -181.5t59.5 -173.5t70.5 -139.5t75 -123t51.5 -80.5l-14 -37h-500l-35 299l56 2q36 -100 65 -127
t92 -27h182l-43 43t-53.5 54.5t-53 59t-56 71.5t-47 76.5t-42.5 88t-25 93t-11 104.5q0 182 83.5 325.5t226 221.5t316.5 78q177 0 319 -76t224 -217.5t82 -323.5q0 -68 -19 -137t-45.5 -121t-67 -108.5t-71 -91t-72 -79t-55.5 -61.5h172q39 0 58.5 3.5t39 20.5t33 45.5
t33.5 84.5zM164 1405l-137 -346l-58 2q32 309 33 334q11 13 72.5 23t81.5 5z" />
    <glyph glyph-name="iotadieresistonos" unicode="&#x390;" horiz-adv-x="501" 
d="M471 117l16 -54q-36 -26 -59 -41t-63.5 -31t-75.5 -16q-24 0 -47 9.5t-46 30.5t-37 62t-14 97v711l164 37v-682q0 -79 21.5 -109.5t58.5 -30.5q39 0 82 17zM459 1090q-42 0 -68 25t-26 65q0 41 26 68.5t68 27.5q38 0 64 -27.5t26 -66.5q0 -41 -25.5 -66.5t-64.5 -25.5z
M387 1389l-192 -355l-58 13q45 159 88 335q19 8 81 17t75 6zM18 1090q-41 0 -67.5 25t-26.5 65t26.5 68t67.5 28q37 0 62.5 -28t25.5 -68q0 -39 -25.5 -64.5t-62.5 -25.5z" />
    <glyph glyph-name="Alpha" unicode="&#x391;" horiz-adv-x="1415" 
d="M1378 0h-501v57q97 12 118.5 32.5t1.5 80.5q-21 62 -112 315h-436q-65 -181 -91 -264q-12 -34 -17.5 -56t-3.5 -40.5t10 -29t27 -18.5t44.5 -12t66.5 -8v-57h-444v57q55 8 81 15t54 30t47 59.5t47 106.5l424 1075l64 19q28 -78 173 -483.5t222 -614.5q26 -70 43.5 -105.5
t44 -59t55 -30.5t82.5 -12v-57zM856 573l-180 523h-4q-98 -260 -193 -523h377z" />
    <glyph glyph-name="Beta" unicode="&#x392;" horiz-adv-x="1204" 
d="M762 723v-6q362 -55 362 -326q0 -199 -196 -309q-150 -82 -402 -82h-452v57q49 3 75.5 6t51 12.5t34 19.5t17.5 34.5t9 50.5t1 74v825q0 48 -1 73t-7.5 50t-15.5 34.5t-31 19t-47 12.5t-70 6v57h526q211 0 308 -69q54 -36 84 -99t30 -135q0 -69 -26 -124.5t-70 -90.5
t-87.5 -56t-92.5 -34zM434 741h96q166 0 243 66t77 197q0 114 -67 188t-205 74q-82 0 -117 -21q-27 -18 -27 -102v-402zM434 674v-418q0 -110 35.5 -148t134.5 -38q138 2 228 76.5t90 224.5q0 303 -394 303h-94z" />
    <glyph glyph-name="Gamma" unicode="&#x393;" horiz-adv-x="1038" 
d="M993 1026l-61 -8q-35 138 -72 184q-25 33 -69 45.5t-142 12.5h-149q-43 0 -54.5 -11t-11.5 -53v-938q0 -47 1.5 -73.5t10 -51t20 -35.5t36.5 -21t55 -13.5t80 -6.5v-57h-555v57q52 4 80.5 10t50 17t30 35t12 54t3.5 85v815q0 46 -1.5 72.5t-8.5 51t-17 36t-31.5 21
t-47 13.5t-68.5 7v57h889q0 -105 20 -305z" />
    <glyph glyph-name="uni0394" unicode="&#x394;" horiz-adv-x="1312" 
d="M1229 0h-1139v49l549 1294l55 19l535 -1313v-49zM1020 102l-399 1002l-402 -1002h801z" />
    <glyph glyph-name="Epsilon" unicode="&#x395;" horiz-adv-x="1163" 
d="M1057 332l61 -8q-35 -197 -71 -324h-988v57q76 6 111.5 12.5t59 29.5t28 55t4.5 100v815q0 50 -1.5 78.5t-9.5 53t-16.5 35t-32.5 19.5t-46.5 12t-69.5 7v57h913l17 -295l-60 -10q-22 104 -65 176q-22 32 -72.5 45t-159.5 13h-155q-47 0 -57.5 -10t-10.5 -56v-465h193
q49 0 78.5 1.5t54.5 8.5t36.5 15t22.5 29t16 40.5t13 59.5h59v-394h-59q-8 41 -13 63.5t-16.5 43t-23 29t-37 15.5t-53 8t-76.5 1h-195v-387q0 -72 10.5 -109t38.5 -57q27 -17 74 -21.5t139 -4.5q116 0 170 14.5t88 54.5q61 71 101 193z" />
    <glyph glyph-name="Zeta" unicode="&#x396;" horiz-adv-x="1234" 
d="M1149 360l61 -12q-4 -21 -20 -98.5t-30.5 -145t-24.5 -104.5h-1059l-17 31q63 89 264 372t335.5 474t263.5 380h-357q-110 0 -166.5 -7.5t-80 -21.5t-42.5 -44q-38 -56 -69 -178h-62q24 308 25 376h49q18 -33 39 -42t70 -9h817l14 -28q-579 -824 -846 -1217
q102 -12 334 -12q192 0 270 15t121 61q56 62 111 210z" />
    <glyph glyph-name="Eta" unicode="&#x397;" horiz-adv-x="1568" 
d="M1493 1331v-57q-47 -4 -72.5 -7t-49.5 -12t-33.5 -19.5t-17.5 -34t-9.5 -50t-1.5 -72.5v-827q0 -47 1.5 -74t9.5 -50t17.5 -33.5t33.5 -19.5t48.5 -12t71.5 -6v-57h-549v57q49 3 75 6t51.5 12t35.5 19.5t19 33.5t10.5 50.5t1.5 73.5v410h-699v-410q0 -46 1.5 -73t9.5 -50
t18 -34t34 -19.5t49.5 -12t72.5 -6.5v-57h-539v57q46 3 70.5 6t48.5 12t33 19.5t17 33.5t9.5 50t1.5 74v827q0 47 -1.5 73.5t-9.5 50t-17.5 33.5t-34 19t-49 12t-72.5 7v57h530v-57q-44 -4 -67.5 -7t-46 -12t-31.5 -19.5t-16.5 -33.5t-9 -50t-1.5 -73v-331h699v331
q0 46 -1.5 73t-9.5 50t-17 33.5t-32.5 19.5t-47.5 12t-69 7v57h535z" />
    <glyph glyph-name="Theta" unicode="&#x398;" horiz-adv-x="1513" 
d="M770 1362q104 0 201.5 -31t179 -90.5t142.5 -141t95.5 -188.5t34.5 -227q0 -162 -53 -297.5t-145 -226.5t-216 -141t-264 -50q-183 0 -333 88t-236 244.5t-86 347.5q0 109 29 213t87 194.5t138.5 158.5t190.5 107.5t235 39.5zM729 1288q-86 0 -163 -37.5t-137 -108
t-95 -183t-35 -252.5q0 -189 62.5 -340.5t174 -236.5t252.5 -85q87 0 162.5 36t135 106t94 182.5t34.5 255.5q0 313 -135.5 488t-349.5 175zM1028 461h-63q-6 57 -11 83.5t-19.5 44.5t-33.5 21.5t-59 3.5h-174q-40 0 -59 -3.5t-33.5 -21.5t-19.5 -44.5t-11 -83.5h-64v446h64
q6 -57 11 -83.5t19.5 -44t33 -20.5t59.5 -3h174q41 0 59.5 3t33 20.5t19.5 44t11 83.5h63v-446z" />
    <glyph glyph-name="Iota" unicode="&#x399;" horiz-adv-x="698" 
d="M621 0h-543v57q47 3 72.5 6.5t49.5 12.5t33.5 19.5t17.5 34.5t9.5 51.5t1.5 74.5v819q0 47 -1.5 74.5t-9.5 51.5t-17.5 34.5t-33.5 19.5t-49.5 12.5t-72.5 6.5v57h543v-57q-47 -3 -72.5 -6.5t-49.5 -12.5t-34 -19.5t-18 -34.5t-9.5 -51.5t-1.5 -74.5v-819
q0 -48 1.5 -75.5t9.5 -51.5t18 -34.5t34 -19.5t49.5 -12t72.5 -6v-57z" />
    <glyph glyph-name="Kappa" unicode="&#x39a;" horiz-adv-x="1378" 
d="M1366 0h-315q-71 80 -148 170.5t-194 229.5t-166 196q-33 39 -58 50.5t-53 6.5v-389q0 -48 2 -77t10.5 -53.5t19 -36.5t34.5 -21t50 -12.5t73 -6.5v-57h-533v57q43 3 67.5 6.5t46.5 13t32 21t17.5 36t9 53.5t1.5 77v801q0 50 -1.5 79.5t-9.5 54.5t-17.5 36t-33.5 20.5
t-48 12.5t-70 6v57h528v-57q-44 -3 -68.5 -6.5t-47.5 -13t-33 -21t-17.5 -36t-9.5 -54t-2 -78.5v-358q59 16 143 94q234 226 345 362q46 55 40 76.5t-75 28.5l-45 6v57h491v-57q-117 -11 -176.5 -38t-157.5 -116q-101 -93 -362 -358q107 -132 248.5 -295t232.5 -262
q79 -85 126 -112t124 -36v-57z" />
    </font>
</defs>
</svg>
